L’Ile au Trésor 1080p MULTi


Adaptation animée du célèbre roman de Robert Louis Stevenson. Cette série rappelle les débuts d’une complicité entre deux personnes aux personnalités différentes. C’est de cette façon qu’une belle aventure se forge !

L.Ile.Au.Tresor.MULTi.1080p.BluRay.REMUX.AVC-raton

mot de passe : tresor
Unique ID                   : 144728887360790080018634980630607124403 (0x6CE1C51185607BB6BE8C7D051B9F57B3)
Complete name               : L.Ile.Au.Tresor.E01.MULTi.1080p.BluRay.REMUX.AVC-raton.mkv
Format                      : Matroska
Format version              : Version 4
File size                   : 3.21 GiB
Duration                    : 19 min 36 s
Overall bit rate mode       : Variable
Overall bit rate            : 23.5 Mb/s
Encoded date                : UTC 2019-09-13 07:12:56
Writing application         : mkvmerge v35.0.0 ('All The Love In The World') 64-bit
Writing library             : libebml v1.3.9 + libmatroska v1.5.2

Video
ID                          : 1
Format                      : AVC
Format/Info                 : Advanced Video Codec
Format profile              : High@L4.1
Format settings             : CABAC / 3 Ref Frames
Format settings, CABAC      : Yes
Format settings, Reference  : 3 frames
Codec ID                    : V_MPEG4/ISO/AVC
Duration                    : 19 min 36 s
Bit rate mode               : Variable
Bit rate                    : 20.0 Mb/s
Maximum bit rate            : 28.0 Mb/s
Width                       : 1 920 pixels
Height                      : 1 080 pixels
Display aspect ratio        : 16:9
Frame rate mode             : Constant
Frame rate                  : 23.976 (24000/1001) FPS
Standard                    : NTSC
Color space                 : YUV
Chroma subsampling          : 4:2:0
Bit depth                   : 8 bits
Scan type                   : Progressive
Bits/(Pixel*Frame)          : 0.402
Stream size                 : 2.74 GiB (85%)
Default                     : Yes
Forced                      : No
Color range                 : Limited
Color primaries             : BT.709
Transfer characteristics    : BT.709
Matrix coefficients         : BT.709

Audio #1
ID                          : 2
Format                      : DTS XLL
Format/Info                 : Digital Theater Systems
Commercial name             : DTS-HD Master Audio
Codec ID                    : A_DTS
Duration                    : 19 min 36 s
Bit rate mode               : Variable
Bit rate                    : 1 571 kb/s
Channel(s)                  : 2 channels
Sampling rate               : 48.0 kHz
Frame rate                  : 93.750 FPS (512 SPF)
Bit depth                   : 16 bits
Compression mode            : Lossless
Stream size                 : 220 MiB (7%)
Language                    : French
Default                     : Yes
Forced                      : No

Audio #2
ID                          : 3
Format                      : DTS XLL
Format/Info                 : Digital Theater Systems
Commercial name             : DTS-HD Master Audio
Codec ID                    : A_DTS
Duration                    : 19 min 36 s
Bit rate mode               : Variable
Bit rate                    : 1 870 kb/s
Channel(s)                  : 2 channels
Channel layout              : L R
Sampling rate               : 48.0 kHz
Frame rate                  : 93.750 FPS (512 SPF)
Bit depth                   : 24 bits
Compression mode            : Lossless
Stream size                 : 262 MiB (8%)
Language                    : Japanese
Default                     : No
Forced                      : No

Text #1
ID                          : 4
Format                      : PGS
Muxing mode                 : zlib
Codec ID                    : S_HDMV/PGS
Codec ID/Info               : Picture based subtitle format used on BDs/HD-DVDs
Duration                    : 19 min 35 s
Bit rate                    : 31.7 kb/s
Count of elements           : 502
Stream size                 : 4.44 MiB (0%)
Language                    : French
Default                     : No
Forced                      : No

Text #2
ID                          : 5
Format                      : PGS
Muxing mode                 : zlib
Codec ID                    : S_HDMV/PGS
Codec ID/Info               : Picture based subtitle format used on BDs/HD-DVDs
Duration                    : 4 s 880 ms
Bit rate                    : 20.7 kb/s
Count of elements           : 2
Stream size                 : 12.3 KiB (0%)
Language                    : French
Default                     : No
Forced                      : No