Désenchantée 1080p MULTi


Direction le royaume médiéval en ruines de Dreamland pour suivre les mésaventures de Bean, une jeune princesse picoleuse, de son compagnon, un elfe chicaneur nommé Elfo et de son propre démon, Luci. En chemin, le fantasque trio rencontrera des ogres, des lutins, des harpies, des diablotins, des trolls, des morses et beaucoup d’humains idiots.

Disenchantment.S01.MULTi.1080p.NF.WEB.DDP5.1.x264-NEO

mot de passe : dreamland
            ███╗   ██╗███████╗ ██████╗     
            ████╗  ██║██╔════╝██╔═══██╗    
            ██╔██╗ ██║█████╗  ██║   ██║    
            ██║╚██╗██║██╔══╝  ██║   ██║    
            ██║ ╚████║███████╗╚██████╔╝    
            ╚═╝  ╚═══╝╚══════╝ ╚═════╝     
                               

------------------------------------------------------------------
    Disenchantment.S01E20.FINAL.MULTi.1080p.NF.WEB.DDP5.1.x264-NEO 
------------------------------------------------------------------  
    RELEASE DATE ......: 21.09.2019
    RELEASE SOURCE ....: NETFLIX  
    ENCODING ..........: x264 2pass
    BITRATE ...........: 4220 kb/s
    RESOLUTION ........: 1920*1080
    AUDIO .............: French EAC3 5.1 @640 Kbps
	                   : English EAC3 5.1 @640 Kbps
	SUBTITLES .........: French Full / Forced 
    RUNTIME ...........: 28 min 8 s
    IMDB URL ..........: https://www.imdb.com/title/tt5363918/
    Contact ...........: neo.team@protonmail.com
	
	
----------------------------------------------------------------
General
Unique ID                                : 8949161779858930316675213964711836217 (0x6BB8BBDCD53DA7762A7C8C334B83A39)
Complete name                            : Disenchantment.S01E20.FINAL.MULTi.1080p.NF.WEB.DDP5.1.x264-NEO.mkv
Format                                   : Matroska
Format version                           : Version 4 / Version 2
File size                                : 1.05 GiB
Duration                                 : 28 min 8 s
Overall bit rate mode                    : Variable
Overall bit rate                         : 5 331 kb/s
Movie name                               : Disenchantment.S01E20.FINAL.MULTi.1080p.NF.WEB.DDP5.1.x264-NEO
Encoded date                             : UTC 2019-09-20 15:22:21
Writing application                      : mkvmerge v36.0.0 ('Is That Jazz?') 64-bit
Writing library                          : libebml v1.3.9 + libmatroska v1.5.2

Video
ID                                       : 1
Format                                   : AVC
Format/Info                              : Advanced Video Codec
Format profile                           : Main@L4
Format settings                          : CABAC / 3 Ref Frames
Format settings, CABAC                   : Yes
Format settings, ReFrames                : 3 frames
Codec ID                                 : V_MPEG4/ISO/AVC
Duration                                 : 28 min 8 s
Bit rate mode                            : Variable
Bit rate                                 : 4 220 kb/s
Maximum bit rate                         : 6 330 kb/s
Width                                    : 1 920 pixels
Height                                   : 1 080 pixels
Display aspect ratio                     : 16:9
Frame rate mode                          : Constant
Frame rate                               : 23.976 (24000/1001) FPS
Color space                              : YUV
Chroma subsampling                       : 4:2:0
Bit depth                                : 8 bits
Scan type                                : Progressive
Bits/(Pixel*Frame)                       : 0.085
Stream size                              : 815 MiB (76%)
Title                                    : Disenchantment.S01E20.FINAL.MULTi.1080p.NF.WEB.DDP5.1.x264-NEO
Writing library                          : x264 core 148 r2715 7e75228
Encoding settings                        : cabac=1 / ref=3 / deblock=1:0:0 / analyse=0x1:0x111 / me=umh / subme=10 / psy=1 / psy_rd=1.00:0.00 / mixed_ref=1 / me_range=24 / chroma_me=1 / trellis=2 / 8x8dct=0 / cqm=0 / deadzone=21,11 / fast_pskip=1 / chroma_qp_offset=-2 / threads=8 / lookahead_threads=1 / sliced_threads=0 / nr=0 / decimate=1 / interlaced=0 / bluray_compat=0 / stitchable=1 / constrained_intra=0 / bframes=2 / b_pyramid=0 / b_adapt=2 / b_bias=0 / direct=3 / weightb=1 / open_gop=0 / weightp=2 / keyint=48 / keyint_min=25 / scenecut=0 / intra_refresh=0 / rc_lookahead=48 / rc=2pass / mbtree=1 / bitrate=4220 / ratetol=1.0 / qcomp=0.50 / qpmin=6 / qpmax=51 / qpstep=4 / cplxblur=20.0 / qblur=0.5 / vbv_maxrate=6330 / vbv_bufsize=8440 / nal_hrd=vbr / filler=0 / ip_ratio=1.40 / aq=1:1.00
Default                                  : Yes
Forced                                   : No

Audio #1
ID                                       : 2
Format                                   : E-AC-3
Format/Info                              : Enhanced Audio Coding 3
Codec ID                                 : A_EAC3
Duration                                 : 28 min 8 s
Bit rate mode                            : Constant
Bit rate                                 : 640 kb/s
Channel(s)                               : 6 channels
Channel positions                        : Front: L C R, Side: L R, LFE
Sampling rate                            : 48.0 kHz
Frame rate                               : 187.500 FPS (256 SPF)
Compression mode                         : Lossy
Stream size                              : 129 MiB (12%)
Title                                    : French
Language                                 : French
Service kind                             : Complete Main
Default                                  : Yes
Forced                                   : No

Audio #2
ID                                       : 3
Format                                   : E-AC-3
Format/Info                              : Enhanced Audio Coding 3
Codec ID                                 : A_EAC3
Duration                                 : 28 min 8 s
Bit rate mode                            : Constant
Bit rate                                 : 640 kb/s
Channel(s)                               : 6 channels
Channel positions                        : Front: L C R, Side: L R, LFE
Sampling rate                            : 48.0 kHz
Frame rate                               : 187.500 FPS (256 SPF)
Compression mode                         : Lossy
Stream size                              : 129 MiB (12%)
Title                                    : English
Language                                 : English
Service kind                             : Complete Main
Default                                  : No
Forced                                   : No

Text #1
ID                                       : 4
Format                                   : UTF-8
Codec ID                                 : S_TEXT/UTF8
Codec ID/Info                            : UTF-8 Plain Text
Duration                                 : 26 min 51 s
Bit rate                                 : 2 b/s
Count of elements                        : 12
Stream size                              : 405 Bytes (0%)
Title                                    : French [Forced]
Language                                 : French
Default                                  : Yes
Forced                                   : Yes

Text #2
ID                                       : 5
Format                                   : UTF-8
Codec ID                                 : S_TEXT/UTF8
Codec ID/Info                            : UTF-8 Plain Text
Duration                                 : 26 min 51 s
Bit rate                                 : 82 b/s
Count of elements                        : 413
Stream size                              : 16.3 KiB (0%)
Title                                    : French [Full]
Language                                 : French
Default                                  : No
Forced                                   : No