Card Captor Sakura 720p/1080p MULTi


Kinomoto Sakura est une petite fille de 10 ans vivant seule avec son père et son frère ainé Toya (ou Thomas). Sa mère étant morte quand elle était petite, chacun doit aider aux tâches ménagères à tour de rôle dans la famille. Un jour qu’elle est seule à la maison, Sakura s’y attelle, mais est dérangé par un étrange bruit venant du sous-sol, où son père entrepose des livres. Elle y découvre un étrange grimoire scellé et, sans vraiment s’en rendre compte, Sakura en provoque l’ouverture et un vent violent s’en dégage avant qu’apparaisse une étrange créature. Ce lionceau ailé miniature est Keroberos, le gardien des Clow Card. Cependant, à cause de Sakura, toutes les cartes se sont échappées laissant le duo dans l’embarras. Ces cartes sont dangereuses et il faudra toutes les capturer afin qu’elles ne blessent personne. Sakura devient alors Card Captor (chasseuse de carte) et est chargé de toutes les retrouver. Peu à peu, de nombreux obstacles se dresseront devant elle et un rival apparaîtra : Li Shaolan, un descendant de Clow Reed, le créateur des Clow Card, qui se désigne comme leur propriétaire légitime.

Card.Captor.Sakura.EDITION.COLLECTOR.MULTi.1080p.BluRay.REMUX.AVC-raton

mot de passe : sakura
Unique ID                   : 162546185392938620917330396749672093016 (0x7A4941AF3050F7C806B3188511DA1558)
Complete name               : Card.Captor.Sakura.E01.EDITION.COLLECTOR.MULTi.1080p.BluRay.REMUX.AVC-raton.mkv
Format                      : Matroska
Format version              : Version 4
File size                   : 3.25 GiB
Duration                    : 24 min 57 s
Overall bit rate mode       : Variable
Overall bit rate            : 18.6 Mb/s
Encoded date                : UTC 2019-09-20 11:29:50
Writing application         : mkvmerge v35.0.0 ('All The Love In The World') 64-bit
Writing library             : libebml v1.3.9 + libmatroska v1.5.2

Video
ID                          : 1
Format                      : AVC
Format/Info                 : Advanced Video Codec
Format profile              : High@L4.1
Format settings             : CABAC / 4 Ref Frames
Format settings, CABAC      : Yes
Format settings, Reference  : 4 frames
Codec ID                    : V_MPEG4/ISO/AVC
Duration                    : 24 min 57 s
Bit rate mode               : Variable
Bit rate                    : 18.0 Mb/s
Maximum bit rate            : 28.0 Mb/s
Width                       : 1 920 pixels
Height                      : 1 080 pixels
Display aspect ratio        : 16:9
Frame rate mode             : Constant
Frame rate                  : 23.976 (24000/1001) FPS
Standard                    : Component
Color space                 : YUV
Chroma subsampling          : 4:2:0
Bit depth                   : 8 bits
Scan type                   : Progressive
Bits/(Pixel*Frame)          : 0.362
Stream size                 : 3.14 GiB (96%)
Writing library             : x264 core 148
Encoding settings           : cabac=1 / ref=4 / deblock=1:0:0 / analyse=0x3:0x133 / me=umh / subme=9 / psy=1 / psy_rd=1.00:0.00 / mixed_ref=1 / me_range=24 / chroma_me=1 / trellis=2 / 8x8dct=1 / cqm=1 / deadzone=21,11 / fast_pskip=1 / chroma_qp_offset=-2 / threads=12 / lookahead_threads=1 / sliced_threads=0 / slices=4 / nr=0 / decimate=1 / interlaced=0 / minigop=1 / stitchable=1 / constrained_intra=0 / bframes=2 / b_pyramid=0 / b_adapt=2 / b_bias=0 / direct=3 / weightb=1 / open_gop=1 / weightp=1 / keyint=24 / keyint_min=1 / scenecut=40 / intra_refresh=0 / rc_lookahead=24 / rc=2pass / mbtree=1 / bitrate=18000 / ratetol=1.0 / qcomp=0.60 / qpmin=3 / qpmax=69 / qpstep=4 / cplxblur=20.0 / qblur=0.5 / vbv_maxrate=28000 / vbv_bufsize=28000 / nal_hrd=vbr / filler=0 / ip_ratio=1.40 / aq=1:1.00
Default                     : Yes
Forced                      : No
Color range                 : Limited
Color primaries             : BT.709
Transfer characteristics    : BT.709
Matrix coefficients         : BT.709

Audio #1
ID                          : 2
Format                      : AC-3
Format/Info                 : Audio Coding 3
Commercial name             : Dolby Digital
Codec ID                    : A_AC3
Duration                    : 24 min 57 s
Bit rate mode               : Constant
Bit rate                    : 192 kb/s
Channel(s)                  : 2 channels
Channel layout              : L R
Sampling rate               : 48.0 kHz
Frame rate                  : 31.250 FPS (1536 SPF)
Bit depth                   : 16 bits
Compression mode            : Lossy
Stream size                 : 34.3 MiB (1%)
Language                    : French
Service kind                : Complete Main
Default                     : Yes
Forced                      : No

Audio #2
ID                          : 3
Format                      : AC-3
Format/Info                 : Audio Coding 3
Commercial name             : Dolby Digital
Codec ID                    : A_AC3
Duration                    : 24 min 57 s
Bit rate mode               : Constant
Bit rate                    : 448 kb/s
Channel(s)                  : 6 channels
Channel layout              : L R C LFE Ls Rs
Sampling rate               : 48.0 kHz
Frame rate                  : 31.250 FPS (1536 SPF)
Bit depth                   : 16 bits
Compression mode            : Lossy
Stream size                 : 80.0 MiB (2%)
Language                    : Japanese
Service kind                : Complete Main
Default                     : No
Forced                      : No

Text #1
ID                          : 4
Format                      : PGS
Muxing mode                 : zlib
Codec ID                    : S_HDMV/PGS
Codec ID/Info               : Picture based subtitle format used on BDs/HD-DVDs
Duration                    : 24 min 38 s
Bit rate                    : 1 971 b/s
Count of elements           : 34
Stream size                 : 356 KiB (0%)
Language                    : French
Default                     : Yes
Forced                      : No

Text #2
ID                          : 5
Format                      : PGS
Muxing mode                 : zlib
Codec ID                    : S_HDMV/PGS
Codec ID/Info               : Picture based subtitle format used on BDs/HD-DVDs
Duration                    : 24 min 38 s
Bit rate                    : 32.5 kb/s
Count of elements           : 644
Stream size                 : 5.72 MiB (0%)
Language                    : French
Default                     : No
Forced                      : No

Card.Captor.Sakura.FRENCH.720p.BluRay.x264-KAZETV

mot de passe : sakura
KAZETV brings to you :

Card.Captor.Sakura.E70.FiNAL.FRENCH.720p.BluRay.x264-KAZETV

---- Video Info ----

* codec      : X264
* pass       : 2 pass
* framerate  : 23.976 fps
* resolution : 960x720

---- Audio Info ----

* track     : French
* subtitle  : French Forced

* codec     : AC3 2.0
* bitrate   : 192 Kbps
* frequence : 48.0 KHZ

---- Packing Info ----

* runtime   : 24min 59s
* size      : 743 Mio
* pack      : 16x50mB

* link      : http://www.animeka.com/animes/detail/card-captor-sakura.html

* note      : Greetz a la foret qui dort, la pierre brillante, au poisson cru et au soleil levant.