The Dark Crystal Age of Resistance 720p/1080p VF


Le monde de Thra se meurt. Le Cristal est le cœur de Thra, une source de pouvoirs mystérieux endommagée par les Skeksès. Lorsque des Gelfling découvrent l’horrible vérité qui se cache derrière le pouvoir des Skeksès, les feux de la rébellion s’allument et une bataille épique pour la planète commence.

The Dark Crystal Age Of Resistance S01.TRUEFRENCH.1080p.WEB-DL.x264-FTMVHD

mot de passe : crystal
Unique ID                      : 236129989442510741286732512427161559868 (0xB1A4FB538B0BFE29A4D4D1F0DB5E233C)
Complete name                  : The Dark Crystal Age Of Resistance S01E10.FINAL.TRUEFRENCH.1080p.WEB-DL.x264-FTMVHD.mkv
Format                         : Matroska
Format version                 : Version 4
File size                      : 1.82 GiB
Duration                       : 47 min 25 s
Overall bit rate               : 5 486 kb/s
Movie name                     : The Dark Crystal Age Of Resistance S01E10.FINAL.TRUEFRENCH.1080p.WEB-DL.x264-FTMVHD
Encoded date                   : UTC 2019-09-05 16:58:26
Writing application            : mkvmerge v34.0.0 ('Sight and Seen') 64-bit
Writing library                : libebml v1.3.7 + libmatroska v1.5.0

Video
ID                             : 1
Format                         : AVC
Format/Info                    : Advanced Video Codec
Format profile                 : High@L4.1
Format settings                : CABAC / 5 Ref Frames
Format settings, CABAC         : Yes
Format settings, Reference fra : 5 frames
Codec ID                       : V_MPEG4/ISO/AVC
Duration                       : 47 min 25 s
Bit rate                       : 5 100 kb/s
Width                          : 1 920 pixels
Height                         : 864 pixels
Display aspect ratio           : 2.222
Frame rate mode                : Constant
Frame rate                     : 23.976 (24000/1001) FPS
Color space                    : YUV
Chroma subsampling             : 4:2:0
Bit depth                      : 8 bits
Scan type                      : Progressive
Stream size                    : 1.69 GiB (93%)
Title                          : 1080p WEB-DL US (FTMVHD)
Writing library                : x264 core 152 r2851bm ba24899
Language                       : English
Default                        : Yes
Forced                         : No

Audio
ID                             : 2
Format                         : AC-3
Format/Info                    : Audio Coding 3
Commercial name                : Dolby Digital
Codec ID                       : A_AC3
Duration                       : 47 min 25 s
Bit rate mode                  : Constant
Bit rate                       : 384 kb/s
Channel(s)                     : 6 channels
Channel layout                 : L R C LFE Ls Rs
Sampling rate                  : 48.0 kHz
Frame rate                     : 31.250 FPS (1536 SPF)
Bit depth                      : 16 bits
Compression mode               : Lossy
Stream size                    : 130 MiB (7%)
Title                          : AC3 5.1 NETFLIX FR (FTMVHD)
Language                       : French
Service kind                   : Complete Main
Default                        : Yes
Forced                         : No

The Dark Crystal Age Of Resistance S01.TRUEFRENCH.720p.WEB-DL.x264-FTMVHD

mot de passe : crystal
Unique ID                      : 74702296861292888950987002628072399033 (0x3833239862AA5E584693117E82B9E0B9)
Complete name                  : The Dark Crystal Age Of Resistance S01E10.FINAL.TRUEFRENCH.720p.WEB-DL.x264-FTMVHD.mkv
Format                         : Matroska
Format version                 : Version 4
File size                      : 917 MiB
Duration                       : 47 min 25 s
Overall bit rate               : 2 702 kb/s
Movie name                     : The Dark Crystal Age Of Resistance S01E10.FINAL.TRUEFRENCH.720p.WEB-DL.x264-FTMVHD
Encoded date                   : UTC 2019-09-05 16:56:23
Writing application            : mkvmerge v34.0.0 ('Sight and Seen') 64-bit
Writing library                : libebml v1.3.7 + libmatroska v1.5.0

Video
ID                             : 1
Format                         : AVC
Format/Info                    : Advanced Video Codec
Format profile                 : High@L3.1
Format settings                : CABAC / 6 Ref Frames
Format settings, CABAC         : Yes
Format settings, Reference fra : 6 frames
Codec ID                       : V_MPEG4/ISO/AVC
Duration                       : 47 min 25 s
Bit rate                       : 2 316 kb/s
Width                          : 1 280 pixels
Height                         : 576 pixels
Display aspect ratio           : 2.222
Frame rate mode                : Constant
Frame rate                     : 23.976 (24000/1001) FPS
Color space                    : YUV
Chroma subsampling             : 4:2:0
Bit depth                      : 8 bits
Scan type                      : Progressive
Stream size                    : 786 MiB (86%)
Title                          : 1080p WEB-DL US (FTMVHD)
Writing library                : x264 core 152 r2851bm ba24899
Language                       : English
Default                        : Yes
Forced                         : No

Audio
ID                             : 2
Format                         : AC-3
Format/Info                    : Audio Coding 3
Commercial name                : Dolby Digital
Codec ID                       : A_AC3
Duration                       : 47 min 25 s
Bit rate mode                  : Constant
Bit rate                       : 384 kb/s
Channel(s)                     : 6 channels
Channel layout                 : L R C LFE Ls Rs
Sampling rate                  : 48.0 kHz
Frame rate                     : 31.250 FPS (1536 SPF)
Bit depth                      : 16 bits
Compression mode               : Lossy
Stream size                    : 130 MiB (14%)
Title                          : AC3 5.1 NETFLIX FR (FTMVHD)
Language                       : French
Service kind                   : Complete Main
Default                        : Yes
Forced                         : No