Demon Slayer (Kimetsu no Yaiba) 720p/1080p VOSTFR


Depuis les temps anciens, il existe des rumeurs concernant des démons mangeurs d’hommes qui se cachent dans les bois. Pour cette raison, les citadins locaux ne s’y aventurent jamais la nuit. La légende raconte aussi qu’un tueur de démons déambule la nuit, chassant ces démons assoiffés de sang. Pour le jeune Tanjirou, ces rumeurs vont bientôt devenir sa dure réalité … Depuis la mort de son père, Tanjirou a pris sur lui pour subvenir aux besoins de sa famille. Malgré cette tragédie, ils réussissent à trouver un peu de bonheur au quotidien. Cependant, ce peu de bonheur se retrouve détruit le jour où Tanjirou découvre que sa famille s’est fait massacrer et que la seule survivante, sa sœur Nezuko, est devenue un démon. À sa grande surprise, Nezuko montre encore des signes d’émotion et de pensées humaines. Ainsi, commence la dure tâche de Tanjirou, celle de combattre les démons et de faire redevenir sa sœur humaine.

DEMON SLAYER S01 VOSTFR WEB-DL 1080P X264 WAKANIM

mot de passe : slayer
Complete name                            : 01 Cruauté.mp4
Format                                   : MPEG-4
Format profile                           : Base Media
Codec ID                                 : isom
File size                                : 2.86 GiB
Duration                                 : 23mn 39s
Overall bit rate mode                    : Variable
Overall bit rate                         : 17.3 Mbps
Writing application                      : Lavf58.12.100

Video
ID                                       : 1
Format                                   : AVC
Format/Info                              : Advanced Video Codec
Format profile                           : High@L4.1
Format settings, CABAC                   : Yes
Format settings, ReFrames                : 4 frames
Codec ID                                 : avc1
Codec ID/Info                            : Advanced Video Coding
Duration                                 : 23mn 39s
Bit rate                                 : 17.1 Mbps
Width                                    : 1 920 pixels
Height                                   : 1 080 pixels
Display aspect ratio                     : 16:9
Frame rate mode                          : Constant
Frame rate                               : 23.976 fps
Color space                              : YUV
Chroma subsampling                       : 4:2:0
Bit depth                                : 8 bits
Scan type                                : Progressive
Bits/(Pixel*Frame)                       : 0.345
Stream size                              : 2.83 GiB (99%)
Writing library                          : x264 core 155 r2901 7d0ff22
Encoding settings                        : cabac=1 / ref=4 / deblock=1:1:1 / analyse=0x3:0x133 / me=umh / subme=10 / psy=1 / psy_rd=0.40:0.00 / mixed_ref=1 / me_range=24 / chroma_me=1 / trellis=2 / 8x8dct=1 / cqm=0 / deadzone=21,11 / fast_pskip=1 / chroma_qp_offset=-2 / threads=24 / lookahead_threads=6 / sliced_threads=0 / nr=0 / decimate=1 / interlaced=0 / bluray_compat=0 / constrained_intra=0 / bframes=10 / b_pyramid=2 / b_adapt=2 / b_bias=0 / direct=3 / weightb=1 / open_gop=0 / weightp=2 / keyint=250 / keyint_min=23 / scenecut=40 / intra_refresh=0 / rc_lookahead=60 / rc=crf / mbtree=1 / crf=12.0 / qcomp=0.60 / qpmin=0 / qpmax=69 / qpstep=4 / ip_ratio=1.40 / aq=1:0.60

Audio
ID                                       : 2
Format                                   : AAC
Format/Info                              : Advanced Audio Codec
Format profile                           : LC
Codec ID                                 : 40
Duration                                 : 23mn 39s
Duration_LastFrame                       : -7ms
Bit rate mode                            : Variable
Bit rate                                 : 192 Kbps
Channel(s)                               : 2 channels
Channel positions                        : Front: L R
Sampling rate                            : 48.0 KHz
Compression mode                         : Lossy
Delay relative to video                  : 83ms
Stream size                              : 32.2 MiB (1%)

Kimetsu.no.Yaiba.S01.SUBFRENCH.720p.WEBRip.x264-BSD

mot de passe : slayer
█▀▀▀▀▀▀▀▀▀▀▀▀▀▀▀▀▀▀▀▀▀▀▀▀▀▀▀▀▀▀▀▀▀▀▀▀▀▀▀▀▀▀▀▀▀▀▀▀▀▀▀▀▀▀▀▀▀▀▀▀▀▀▀▀▀▀▀▀▀▀▀▀▀▀▀▀▀▀▀▀▀▀▀▀▀▀▀▀▀▀▀▀▀▀▀▀▀▀▀▀▀▀▀▀▀▀▀▀▀▀▀▀█
█▀▀▀▀▀▀▀▀▀▀▀▀▀▀▀▀▀▀▀▀▀▀▀▀▀▀▀▀▀▀▀▀▀▀▀▀▀▀▀▀▀▀▀▀▀▀▀▀▀▀▀▀▀▀▀▀▀▀▀▀▀▀▀▀▀▀▀▀▀▀▀▀▀▀▀▀▀▀▀▀▀▀▀▀▀▀▀▀▀▀▀▀▀▀▀▀▀▀▀▀▀▀▀▀▀▀▀▀█
█ █     oooooooooo.   .oooooo..o oooooooooo.           ooooooooooooo                                           █
█ █     `888'   `Y8b d8P'    `Y8 `888'   `Y8b          8'   888   `8                                           █
█ █      888     888 Y88bo.       888      888              888       .ooooo.   .oooo.   ooo. .oo.  .oo.       █
█ █      888oooo888'  `"Y8888o.   888      888              888      d88' `88b `P  )88b  `888P"Y88bP"Y88b      █
█ █      888    `88b      `"Y88b  888      888 8888888      888      888ooo888  .oP"888   888   888   888      █
█ █      888    .88P oo     .d8P  888     d88'              888      888    .o d8(  888   888   888   888      █
█ █     o888bood8P'  8""88888P'  o888bood8P'               o888o     `Y8bod8P' `Y888""8o o888o o888o o888o     █
█ █                                                                                                            █
█ ▀▀▀▀▀▀▀▀▀▀▀▀▀▀▀▀▀▀▀▀▀▀▀▀▀▀▀▀▀▀▀▀▀▀▀▀▀▀▀▀▀▀▀▀▀▀▀▀▀▀▀▀▀▀▀▀▀▀▀▀▀▀▀▀▀▀▀▀▀▀▀▀▀▀▀▀▀▀▀▀▀▀▀▀▀▀▀▀▀▀▀▀▀▀▀▀▀▀▀▀▀▀▀▀▀▀▀▀▀▀ █
█▀▀▀▀▀▀▀▀▀▀▀▀▀▀▀▀▀▀▀▀▀▀▀▀▀▀▀▀▀▀▀▀▀▀▀▀▀▀▀▀▀▀▀▀▀▀▀▀▀▀▀▀▀▀▀▀▀▀▀▀▀▀▀▀▀▀▀▀▀▀▀▀▀▀▀▀▀▀▀▀▀▀▀▀▀▀▀▀▀▀▀▀▀▀▀▀▀▀▀▀▀▀▀▀▀▀▀▀█
█ █                                                                                                            █
█ █         PRESENTE..: Kimetsu.no.Yaiba.S01E26.SUBFRENCH.720p.WEBRip.x264-BSD                                 █
█ █                                                                                                            █
█ █         TheMovieDB: https://www.themoviedb.org/tv/85937                                                    █
█ █                                                                                                            █
█ █         ■ CODEC...........: x264                 ║      ■ SOURCE ViDEO....: Crunchyroll (Untouched)        █
█ █                                                  ║                                                         █
█ █         ■ BiTRATE.........: 4000                 ║      ■ SOURCE AUDiO....: Crunchyroll (Untouched)        █
█ █                                                  ║                                                         █
█ █         ■ RESOLUTiON......: 1 280 X 720          ║      ■ SOURCE SUBTiTLES: WAKANIM                        █
█ █                                                  ║                                                         █
█ █         ■ ASPECT RATiO....: 16:9                 ║      ■ FONT............: Burbin Casual NC_0.ttf         █
█ █                                                  ║                                                         █
█ █         ■ FRAMERATE.......: 23.976 fps           ║      ■ NB FICHIER(S)...: 1                              █
█ █                                                  ║                                                         █
█ █         ■ LANGUAGE(s).....: Japonais             ║                                                         █
█ █                                                  ║                                                         █
█ █         ■ AUDiO iNFOS.....: AAC 128 kb/s         ║                                                         █
█ █                                                  ║                                                         █
█ █         ■ SUBTiTLES.......: Francais             ║                                                         █
█ █                                                  ║                                                         █
█ █         ■ DURATiON........: 25 min               ║                                                         █
█ █                                                  ║                                                         █
█ █         ■ FORMAT..........: MKV                  ║                                                         █
█ █                                                                                                            █
█ ▀▀▀▀▀▀▀▀▀▀▀▀▀▀▀▀▀▀▀▀▀▀▀▀▀▀▀▀▀▀▀▀▀▀▀▀▀▀▀▀▀▀▀▀▀▀▀▀▀▀▀▀▀▀▀▀▀▀▀▀▀▀▀▀▀▀▀▀▀▀▀▀▀▀▀▀▀▀▀▀▀▀▀▀▀▀▀▀▀▀▀▀▀▀▀▀▀▀▀▀▀▀▀▀▀▀▀▀▀▀ █
█▀▀▀▀▀▀▀▀▀▀▀▀▀▀▀▀▀▀▀▀▀▀▀▀▀▀▀▀▀▀▀▀▀▀▀▀▀▀▀▀▀▀▀▀▀▀▀▀▀▀▀▀▀▀▀▀▀▀▀▀▀▀▀▀▀▀▀▀▀▀▀▀▀▀▀▀▀▀▀▀▀▀▀▀▀▀▀▀▀▀▀▀▀▀▀▀▀▀▀▀▀▀▀▀▀▀▀▀█
█ █                                            REMERCIEMENTS :                                                 █
█ █                                                                                                            █
█ █                                                                                                            █
█ █                                                                                                            █
▀▀▀▀▀▀▀▀▀▀▀▀▀▀▀▀▀▀▀▀▀▀▀▀▀▀▀▀▀▀▀▀▀▀▀▀▀▀▀▀▀▀▀▀▀▀▀▀▀▀▀▀▀▀▀▀▀▀▀▀▀▀▀▀▀▀▀▀▀▀▀▀▀▀▀▀▀▀▀▀▀▀▀▀▀▀▀▀▀▀▀▀▀▀▀▀▀▀▀▀▀▀▀▀▀▀▀▀▀▀
▀▀▀▀▀▀▀▀▀▀▀▀▀▀▀▀▀▀▀▀▀▀▀▀▀▀▀▀▀▀▀▀▀▀▀▀▀▀▀▀▀▀▀▀▀▀▀▀▀▀▀▀▀▀▀▀▀▀▀▀▀▀▀▀▀▀▀▀▀▀▀▀▀▀▀▀▀▀▀▀▀▀▀▀▀▀▀▀▀▀▀▀▀▀▀▀▀▀▀▀▀▀▀▀▀▀▀▀▀▀▀▀▀