Kimetsu no Yaiba (Demon Slayer) 720p/1080p VOSTFR


Depuis les temps anciens, il existe des rumeurs concernant des démons mangeurs d’hommes qui se cachent dans les bois. Pour cette raison, les citadins locaux ne s’y aventurent jamais la nuit. La légende raconte aussi qu’un tueur de démons déambule la nuit, chassant ces démons assoiffés de sang. Pour le jeune Tanjirou, ces rumeurs vont bientôt devenir sa dure réalité … Depuis la mort de son père, Tanjirou a pris sur lui pour subvenir aux besoins de sa famille. Malgré cette tragédie, ils réussissent à trouver un peu de bonheur au quotidien. Cependant, ce peu de bonheur se retrouve détruit le jour où Tanjirou découvre que sa famille s’est fait massacrer et que la seule survivante, sa sœur Nezuko, est devenue un démon. À sa grande surprise, Nezuko montre encore des signes d’émotion et de pensées humaines. Ainsi, commence la dure tâche de Tanjirou, celle de combattre les démons et de faire redevenir sa sœur humaine.

Kimetsu.no.Yaiba.CUSTOM.SUBFRENCH.1080p.BluRay.x264-RiPiT

mot de passe : nezuko
Source..: BR JAP + Subs WKN (OCR)
TMDb....: https://www.themoviedb.org/tv/85937

Contact.: ripitcontact@protonmail.com

-----------------------------------------------------------------------------------------------------------
General
Complete name                            : Kimetsu.no.Yaiba.E26.FiNAL.CUSTOM.SUBFRENCH.1080p.BluRay.x264-RiPiT.mkv
Format                                   : Matroska
Format version                           : Version 4
File size                                : 1.46 GiB
Duration                                 : 24 min 10 s
Overall bit rate                         : 8 665 kb/s
Movie name                               : Kimetsu.no.Yaiba.E26.FiNAL.CUSTOM.SUBFRENCH.1080p.BluRay.x264-RiPiT
Encoded date                             : UTC 2020-11-08 01:51:20
Writing application                      : mkvmerge v38.0.0 ('The Silent Type') 64-bit
Writing library                          : libebml v1.3.9 + libmatroska v1.5.2

Video
ID                                       : 1
Format                                   : AVC
Format/Info                              : Advanced Video Codec
Format profile                           : High@L4.1
Format settings                          : CABAC / 4 Ref Frames
Format settings, CABAC                   : Yes
Format settings, Reference frames        : 4 frames
Codec ID                                 : V_MPEG4/ISO/AVC
Duration                                 : 23 min 41 s
Bit rate                                 : 8 384 kb/s
Width                                    : 1 920 pixels
Height                                   : 1 080 pixels
Display aspect ratio                     : 16:9
Frame rate mode                          : Constant
Frame rate                               : 23.976 (24000/1001) FPS
Color space                              : YUV
Chroma subsampling                       : 4:2:0
Bit depth                                : 8 bits
Scan type                                : Progressive
Bits/(Pixel*Frame)                       : 0.169
Stream size                              : 1.39 GiB (95%)
Writing library                          : x264 core 159
Encoding settings                        : cabac=1 / ref=4 / deblock=1:0:0 / analyse=0x3:0x113 / me=umh / subme=8 / psy=1 / psy_rd=1.00:0.00 / mixed_ref=1 / me_range=16 / chroma_me=1 / trellis=1 / 8x8dct=1 / cqm=0 / deadzone=21,11 / fast_pskip=1 / chroma_qp_offset=-2 / threads=24 / lookahead_threads=4 / sliced_threads=0 / nr=0 / decimate=1 / interlaced=0 / bluray_compat=0 / constrained_intra=0 / bframes=3 / b_pyramid=2 / b_adapt=1 / b_bias=0 / direct=3 / weightb=1 / open_gop=0 / weightp=2 / keyint=240 / keyint_min=23 / scenecut=40 / intra_refresh=0 / rc_lookahead=50 / rc=2pass / mbtree=1 / bitrate=8384 / ratetol=1.0 / qcomp=0.60 / qpmin=0 / qpmax=69 / qpstep=4 / cplxblur=20.0 / qblur=0.5 / ip_ratio=1.40 / aq=1:1.00
Default                                  : Yes
Forced                                   : No

Audio
ID                                       : 2
Format                                   : AC-3
Format/Info                              : Audio Coding 3
Commercial name                          : Dolby Digital
Codec ID                                 : A_AC3
Duration                                 : 23 min 41 s
Bit rate mode                            : Constant
Bit rate                                 : 448 kb/s
Channel(s)                               : 2 channels
Channel layout                           : L R
Sampling rate                            : 48.0 kHz
Frame rate                               : 31.250 FPS (1536 SPF)
Compression mode                         : Lossy
Stream size                              : 75.9 MiB (5%)
Language                                 : Japanese
Service kind                             : Complete Main
Default                                  : Yes
Forced                                   : No

Text
ID                                       : 3
Format                                   : ASS
Codec ID                                 : S_TEXT/ASS
Codec ID/Info                            : Advanced Sub Station Alpha
Duration                                 : 24 min 2 s
Bit rate                                 : 105 b/s
Count of elements                        : 348
Compression mode                         : Lossless
Stream size                              : 18.7 KiB (0%)
Language                                 : French
Default                                  : Yes
Forced                                   : No

Kimetsu.no.Yaiba.CUSTOM.SUBFRENCH.720p.BluRay.x264-RiPiT

mot de passe : nezuko
Source..: BR JAP + Subs WKN (OCR)
TMDb....: https://www.themoviedb.org/tv/85937

Contact.: ripitcontact@protonmail.com

-----------------------------------------------------------------------------------------------------------
General
Complete name                            : Kimetsu.no.Yaiba.E26.FiNAL.CUSTOM.SUBFRENCH.720p.BluRay.x264-RiPiT.mkv
Format                                   : Matroska
Format version                           : Version 4
File size                                : 763 MiB
Duration                                 : 24 min 10 s
Overall bit rate                         : 4 417 kb/s
Movie name                               : Kimetsu.no.Yaiba.E26.FiNAL.CUSTOM.SUBFRENCH.720p.BluRay.x264-RiPiT
Encoded date                             : UTC 2020-11-08 01:51:25
Writing application                      : mkvmerge v38.0.0 ('The Silent Type') 64-bit
Writing library                          : libebml v1.3.9 + libmatroska v1.5.2

Video
ID                                       : 1
Format                                   : AVC
Format/Info                              : Advanced Video Codec
Format profile                           : High@L4.1
Format settings                          : CABAC / 5 Ref Frames
Format settings, CABAC                   : Yes
Format settings, Reference frames        : 5 frames
Codec ID                                 : V_MPEG4/ISO/AVC
Duration                                 : 23 min 41 s
Bit rate                                 : 4 053 kb/s
Width                                    : 1 280 pixels
Height                                   : 720 pixels
Display aspect ratio                     : 16:9
Frame rate mode                          : Constant
Frame rate                               : 23.976 (24000/1001) FPS
Color space                              : YUV
Chroma subsampling                       : 4:2:0
Bit depth                                : 8 bits
Scan type                                : Progressive
Bits/(Pixel*Frame)                       : 0.183
Stream size                              : 687 MiB (90%)
Writing library                          : x264 core 159
Encoding settings                        : cabac=1 / ref=5 / deblock=1:0:0 / analyse=0x3:0x113 / me=umh / subme=8 / psy=1 / psy_rd=1.00:0.00 / mixed_ref=1 / me_range=16 / chroma_me=1 / trellis=1 / 8x8dct=1 / cqm=0 / deadzone=21,11 / fast_pskip=1 / chroma_qp_offset=-2 / threads=22 / lookahead_threads=3 / sliced_threads=0 / nr=0 / decimate=1 / interlaced=0 / bluray_compat=0 / constrained_intra=0 / bframes=3 / b_pyramid=2 / b_adapt=1 / b_bias=0 / direct=3 / weightb=1 / open_gop=0 / weightp=2 / keyint=240 / keyint_min=23 / scenecut=40 / intra_refresh=0 / rc_lookahead=50 / rc=2pass / mbtree=1 / bitrate=4053 / ratetol=1.0 / qcomp=0.60 / qpmin=0 / qpmax=69 / qpstep=4 / cplxblur=20.0 / qblur=0.5 / ip_ratio=1.40 / aq=1:1.00
Default                                  : Yes
Forced                                   : No

Audio
ID                                       : 2
Format                                   : AC-3
Format/Info                              : Audio Coding 3
Commercial name                          : Dolby Digital
Codec ID                                 : A_AC3
Duration                                 : 23 min 41 s
Bit rate mode                            : Constant
Bit rate                                 : 448 kb/s
Channel(s)                               : 2 channels
Channel layout                           : L R
Sampling rate                            : 48.0 kHz
Frame rate                               : 31.250 FPS (1536 SPF)
Compression mode                         : Lossy
Stream size                              : 75.9 MiB (10%)
Language                                 : Japanese
Service kind                             : Complete Main
Default                                  : Yes
Forced                                   : No

Text
ID                                       : 3
Format                                   : ASS
Codec ID                                 : S_TEXT/ASS
Codec ID/Info                            : Advanced Sub Station Alpha
Duration                                 : 24 min 2 s
Bit rate                                 : 105 b/s
Count of elements                        : 348
Compression mode                         : Lossless
Stream size                              : 18.7 KiB (0%)
Language                                 : French
Default                                  : Yes
Forced                                   : No