Tico et ses Amis DVDRip VF


Le Peperonchino est un bateau chalutier d’observation de la vie marine. Son capitaine Scott Simpson, océanologue, parcours les mers avec sa fille Nanami et son meilleur ami Al à la recherche d’un animal mythique : la baleine lumineuse, une baleine blanche unique évoquée dans de nombreuses légendes marines. Ils voyagent accompagnée de Tico, une orque femelle qui s’est liée d’amitié avec Nanami. Mais un groupe d’industriels envoie des scientifiques faire des recherches sur le torontium, une étrange matière lumineuse en lien avec la baleine mythique dans le but de créer une arme biochimique.

Tico.Et.Ses.Amis.VOL01.FRENCH.DVDRip.x264-DRAGONMAX

mot de passe : tico
General
Format                                   : Matroska
Format version                           : Version 2
File size                                : 200 MiB
Duration                                 : 23mn 34s
Overall bit rate                         : 1 184 Kbps
Encoded date                             : UTC 2013-07-27 20:04:41
Writing application                      : mkvmerge v2.9.8 ('C'est le bon') built on Aug 13 2009 12:49:06
Writing library                          : libebml v0.7.7 + libmatroska v0.8.1

Video
ID                                       : 1
Format                                   : AVC
Format/Info                              : Advanced Video Codec
Format profile                           : Main@L3.0
Format settings, CABAC                   : Yes
Format settings, ReFrames                : 4 frames
Codec ID                                 : V_MPEG4/ISO/AVC
Duration                                 : 23mn 34s
Bit rate                                 : 1 022 Kbps
Width                                    : 674 pixels
Height                                   : 562 pixels
Display aspect ratio                     : 1.278
Original display aspect ratio            : 1.279
Frame rate mode                          : Variable
Frame rate                               : 25.000 fps
Color space                              : YUV
Chroma subsampling                       : 4:2:0
Bit depth                                : 8 bits
Scan type                                : Progressive
Bits/(Pixel*Frame)                       : 0.108
Stream size                              : 169 MiB (85%)
Writing library                          : x264 core 112
Language                                 : English
Default                                  : Yes
Forced                                   : No
Color primaries                          : BT.601-6 525, BT.1358 525, BT.1700 NTSC, SMPTE 170M
Transfer characteristics                 : BT.709-5, BT.1361
Matrix coefficients                      : BT.601-6 525, BT.1358 525, BT.1700 NTSC, SMPTE 170M

Audio
ID                                       : 2
Format                                   : AC-3
Format/Info                              : Audio Coding 3
Mode extension                           : CM (complete main)
Codec ID                                 : A_AC3
Duration                                 : 23mn 34s
Bit rate mode                            : Constant
Bit rate                                 : 160 Kbps
Channel(s)                               : 2 channels
Channel positions                        : Front: L R
Sampling rate                            : 48.0 KHz
Bit depth                                : 16 bits
Compression mode                         : Lossy
Stream size                              : 27.0 MiB (14%)
Title                                    : Francais
Language                                 : French
Default                                  : Yes
Forced                                   : No

Text
ID                                       : 3
Format                                   : VobSub
Muxing mode                              : zlib
Codec ID                                 : S_VOBSUB
Codec ID/Info                            : The same subtitle format used on DVDs
Title                                    : Francais Pour La VF
Language                                 : French
Default                                  : Yes
Forced                                   : No

Menu
00:00:00.000                             : :Chapter 1
00:01:21.560                             : :Chapter 2
00:10:13.840                             : :Chapter 3
00:21:17.760                             : :Chapter 4
00:22:48.360                             : :Chapter 5