Nadia et le Secret de l’Eau Bleue 1080p MULTi


L’histoire commence à Paris, en 1889, lors de l’exposition universelle. Jean, un jeune inventeur de génie passionné par la mécanique va rencontrer et tomber amoureux d’une jeune fille aux origines inconnues, Nadia. Rapidement, ils vont être pourchassés par un trio de bandits aux commandes d’un étrange engin. Ils en veulent à une mystérieuse pierre bleue que Nadia porte autour de son cou. Leur fuite les entraînera dans de tumultueuses aventures où ils croiseront le chemin du sous-marin Nautilus et du capitaine Némo. L’histoire tourne autour de Nadia qui est à la recherche de son passé et de son pendentif très convoité. Par la suite, nos jeunes amis se rendront compte que leur vrai ennemi n’est celui qu’ils croient lorsqu’ils découvriront une terrifiante organisation secrète, la Nouvelle Atlantide…

Nadia.Le.Secret.De.L.Eau.Bleue.REMASTERED.MULTi.1080p.BluRay.x264-RiPiT

mot de passe : nadia
Source..: REMUX TTN (Merci)
TMDb....: https://www.themoviedb.org/tv/24710

Note....: Version non censuree

Contact.: ripitcontact@protonmail.com
 
--------------------------------------------------------------------------------------------------------------------------------
 
General
Complete name                            : Nadia.Le.Secret.De.L.Eau.Bleue.E39.FiNAL.REMASTERED.MULTi.1080p.BluRay.x264-RiPiT.mkv
Format                                   : Matroska
Format version                           : Version 4
File size                                : 2.18 GiB
Duration                                 : 27 min 45 s
Overall bit rate                         : 11.2 Mb/s
Movie name                               : Nadia.Le.Secret.De.L.Eau.Bleue.E39.FiNAL.REMASTERED.MULTi.1080p.BluRay.x264-RiPiT
Encoded date                             : UTC 2020-12-03 19:34:14
Writing application                      : mkvmerge v38.0.0 ('The Silent Type') 64-bit
Writing library                          : libebml v1.3.9 + libmatroska v1.5.2

Video
ID                                       : 1
Format                                   : AVC
Format/Info                              : Advanced Video Codec
Format profile                           : High@L4.1
Format settings                          : CABAC / 4 Ref Frames
Format settings, CABAC                   : Yes
Format settings, Reference frames        : 4 frames
Codec ID                                 : V_MPEG4/ISO/AVC
Duration                                 : 27 min 45 s
Bit rate                                 : 10.3 Mb/s
Width                                    : 1 444 pixels
Height                                   : 1 080 pixels
Display aspect ratio                     : 4:3
Frame rate mode                          : Constant
Frame rate                               : 23.976 (24000/1001) FPS
Color space                              : YUV
Chroma subsampling                       : 4:2:0
Bit depth                                : 8 bits
Scan type                                : Progressive
Bits/(Pixel*Frame)                       : 0.277
Stream size                              : 2.01 GiB (92%)
Writing library                          : x264 core 161
Encoding settings                        : cabac=1 / ref=4 / deblock=1:-1:-1 / analyse=0x3:0x113 / me=umh / subme=8 / psy=1 / psy_rd=1.00:0.00 / mixed_ref=1 / me_range=16 / chroma_me=1 / trellis=1 / 8x8dct=1 / cqm=0 / deadzone=21,11 / fast_pskip=0 / chroma_qp_offset=-2 / threads=24 / lookahead_threads=4 / sliced_threads=0 / nr=0 / decimate=1 / interlaced=0 / bluray_compat=0 / constrained_intra=0 / bframes=3 / b_pyramid=2 / b_adapt=1 / b_bias=0 / direct=3 / weightb=1 / open_gop=0 / weightp=2 / keyint=240 / keyint_min=23 / scenecut=40 / intra_refresh=0 / rc_lookahead=50 / rc=2pass / mbtree=1 / bitrate=10345 / ratetol=1.0 / qcomp=0.60 / qpmin=0 / qpmax=69 / qpstep=4 / cplxblur=20.0 / qblur=0.5 / ip_ratio=1.40 / aq=1:1.00
Default                                  : Yes
Forced                                   : No

Audio #1
ID                                       : 2
Format                                   : AC-3
Format/Info                              : Audio Coding 3
Commercial name                          : Dolby Digital
Codec ID                                 : A_AC3
Duration                                 : 27 min 45 s
Bit rate mode                            : Constant
Bit rate                                 : 448 kb/s
Channel(s)                               : 2 channels
Channel layout                           : L R
Sampling rate                            : 48.0 kHz
Frame rate                               : 31.250 FPS (1536 SPF)
Compression mode                         : Lossy
Stream size                              : 89.0 MiB (4%)
Language                                 : French
Service kind                             : Complete Main
Default                                  : Yes
Forced                                   : No

Audio #2
ID                                       : 3
Format                                   : AC-3
Format/Info                              : Audio Coding 3
Commercial name                          : Dolby Digital
Codec ID                                 : A_AC3
Duration                                 : 27 min 45 s
Bit rate mode                            : Constant
Bit rate                                 : 448 kb/s
Channel(s)                               : 2 channels
Channel layout                           : L R
Sampling rate                            : 48.0 kHz
Frame rate                               : 31.250 FPS (1536 SPF)
Compression mode                         : Lossy
Stream size                              : 89.0 MiB (4%)
Language                                 : Japanese
Service kind                             : Complete Main
Default                                  : No
Forced                                   : No

Text #1
ID                                       : 4
Format                                   : UTF-8
Codec ID                                 : S_TEXT/UTF8
Codec ID/Info                            : UTF-8 Plain Text
Duration                                 : 24 min 12 s
Bit rate                                 : 4 b/s
Count of elements                        : 23
Stream size                              : 818 Bytes (0%)
Title                                    : Forced
Language                                 : French
Default                                  : Yes
Forced                                   : Yes

Text #2
ID                                       : 5
Format                                   : UTF-8
Codec ID                                 : S_TEXT/UTF8
Codec ID/Info                            : UTF-8 Plain Text
Duration                                 : 27 min 37 s
Bit rate                                 : 46 b/s
Count of elements                        : 301
Stream size                              : 9.47 KiB (0%)
Title                                    : Full
Language                                 : French
Default                                  : No
Forced                                   : No

Nadia.Le.Secret.De.L.Eau.Bleue.REMASTERED.FRENCH.720p.BluRay.x264-RiPiT

mot de passe : nadia
Source..: REMUX TTN (Merci)
TMDb....: https://www.themoviedb.org/tv/24710

Note....: Version non censuree

Contact.: ripitcontact@protonmail.com
 
--------------------------------------------------------------------------------------------------------------------------------
 
General
Complete name                            : Nadia.Le.Secret.De.L.Eau.Bleue.E39.FiNAL.REMASTERED.FRENCH.720p.BluRay.x264-RiPiT.mkv
Format                                   : Matroska
Format version                           : Version 4
File size                                : 894 MiB
Duration                                 : 27 min 45 s
Overall bit rate                         : 4 500 kb/s
Movie name                               : Nadia.Le.Secret.De.L.Eau.Bleue.E39.FiNAL.REMASTERED.FRENCH.720p.BluRay.x264-RiPiT
Encoded date                             : UTC 2020-12-03 19:32:55
Writing application                      : mkvmerge v38.0.0 ('The Silent Type') 64-bit
Writing library                          : libebml v1.3.9 + libmatroska v1.5.2

Video
ID                                       : 1
Format                                   : AVC
Format/Info                              : Advanced Video Codec
Format profile                           : High@L4.1
Format settings                          : CABAC / 9 Ref Frames
Format settings, CABAC                   : Yes
Format settings, Reference frames        : 9 frames
Codec ID                                 : V_MPEG4/ISO/AVC
Duration                                 : 27 min 45 s
Bit rate                                 : 4 049 kb/s
Width                                    : 962 pixels
Height                                   : 720 pixels
Display aspect ratio                     : 4:3
Frame rate mode                          : Constant
Frame rate                               : 23.976 (24000/1001) FPS
Color space                              : YUV
Chroma subsampling                       : 4:2:0
Bit depth                                : 8 bits
Scan type                                : Progressive
Bits/(Pixel*Frame)                       : 0.244
Stream size                              : 804 MiB (90%)
Writing library                          : x264 core 161
Encoding settings                        : cabac=1 / ref=9 / deblock=1:-1:-1 / analyse=0x3:0x113 / me=umh / subme=8 / psy=1 / psy_rd=1.00:0.00 / mixed_ref=1 / me_range=16 / chroma_me=1 / trellis=1 / 8x8dct=1 / cqm=0 / deadzone=21,11 / fast_pskip=0 / chroma_qp_offset=-2 / threads=22 / lookahead_threads=3 / sliced_threads=0 / nr=0 / decimate=1 / interlaced=0 / bluray_compat=0 / constrained_intra=0 / bframes=3 / b_pyramid=2 / b_adapt=1 / b_bias=0 / direct=3 / weightb=1 / open_gop=0 / weightp=2 / keyint=240 / keyint_min=23 / scenecut=40 / intra_refresh=0 / rc_lookahead=50 / rc=2pass / mbtree=1 / bitrate=4049 / ratetol=1.0 / qcomp=0.60 / qpmin=0 / qpmax=69 / qpstep=4 / cplxblur=20.0 / qblur=0.5 / ip_ratio=1.40 / aq=1:1.00
Default                                  : Yes
Forced                                   : No

Audio
ID                                       : 2
Format                                   : AC-3
Format/Info                              : Audio Coding 3
Commercial name                          : Dolby Digital
Codec ID                                 : A_AC3
Duration                                 : 27 min 45 s
Bit rate mode                            : Constant
Bit rate                                 : 448 kb/s
Channel(s)                               : 2 channels
Channel layout                           : L R
Sampling rate                            : 48.0 kHz
Frame rate                               : 31.250 FPS (1536 SPF)
Compression mode                         : Lossy
Stream size                              : 89.0 MiB (10%)
Language                                 : French
Service kind                             : Complete Main
Default                                  : Yes
Forced                                   : No

Text
ID                                       : 3
Format                                   : UTF-8
Codec ID                                 : S_TEXT/UTF8
Codec ID/Info                            : UTF-8 Plain Text
Duration                                 : 24 min 12 s
Bit rate                                 : 4 b/s
Count of elements                        : 23
Stream size                              : 818 Bytes (0%)
Title                                    : Forced
Language                                 : French
Default                                  : Yes
Forced                                   : Yes

Nadia.Le.Secret.De.L.Eau.Bleue.REMASTERED.SUBFRENCH.720p.BluRay.x264-RiPiT

mot de passe : nadia
Source..: REMUX TTN (Merci)
TMDb....: https://www.themoviedb.org/tv/24710

Note....: Version non censuree

Contact.: ripitcontact@protonmail.com
 
-----------------------------------------------------------------------------------------------------------------------------------
 
General
Complete name                            : Nadia.Le.Secret.De.L.Eau.Bleue.E39.FiNAL.REMASTERED.SUBFRENCH.720p.BluRay.x264-RiPiT.mkv
Format                                   : Matroska
Format version                           : Version 4
File size                                : 894 MiB
Duration                                 : 27 min 45 s
Overall bit rate                         : 4 500 kb/s
Movie name                               : Nadia.Le.Secret.De.L.Eau.Bleue.E39.FiNAL.REMASTERED.SUBFRENCH.720p.BluRay.x264-RiPiT
Encoded date                             : UTC 2020-12-03 19:32:56
Writing application                      : mkvmerge v38.0.0 ('The Silent Type') 64-bit
Writing library                          : libebml v1.3.9 + libmatroska v1.5.2

Video
ID                                       : 1
Format                                   : AVC
Format/Info                              : Advanced Video Codec
Format profile                           : High@L4.1
Format settings                          : CABAC / 9 Ref Frames
Format settings, CABAC                   : Yes
Format settings, Reference frames        : 9 frames
Codec ID                                 : V_MPEG4/ISO/AVC
Duration                                 : 27 min 45 s
Bit rate                                 : 4 049 kb/s
Width                                    : 962 pixels
Height                                   : 720 pixels
Display aspect ratio                     : 4:3
Frame rate mode                          : Constant
Frame rate                               : 23.976 (24000/1001) FPS
Color space                              : YUV
Chroma subsampling                       : 4:2:0
Bit depth                                : 8 bits
Scan type                                : Progressive
Bits/(Pixel*Frame)                       : 0.244
Stream size                              : 804 MiB (90%)
Writing library                          : x264 core 161
Encoding settings                        : cabac=1 / ref=9 / deblock=1:-1:-1 / analyse=0x3:0x113 / me=umh / subme=8 / psy=1 / psy_rd=1.00:0.00 / mixed_ref=1 / me_range=16 / chroma_me=1 / trellis=1 / 8x8dct=1 / cqm=0 / deadzone=21,11 / fast_pskip=0 / chroma_qp_offset=-2 / threads=22 / lookahead_threads=3 / sliced_threads=0 / nr=0 / decimate=1 / interlaced=0 / bluray_compat=0 / constrained_intra=0 / bframes=3 / b_pyramid=2 / b_adapt=1 / b_bias=0 / direct=3 / weightb=1 / open_gop=0 / weightp=2 / keyint=240 / keyint_min=23 / scenecut=40 / intra_refresh=0 / rc_lookahead=50 / rc=2pass / mbtree=1 / bitrate=4049 / ratetol=1.0 / qcomp=0.60 / qpmin=0 / qpmax=69 / qpstep=4 / cplxblur=20.0 / qblur=0.5 / ip_ratio=1.40 / aq=1:1.00
Default                                  : Yes
Forced                                   : No

Audio
ID                                       : 2
Format                                   : AC-3
Format/Info                              : Audio Coding 3
Commercial name                          : Dolby Digital
Codec ID                                 : A_AC3
Duration                                 : 27 min 45 s
Bit rate mode                            : Constant
Bit rate                                 : 448 kb/s
Channel(s)                               : 2 channels
Channel layout                           : L R
Sampling rate                            : 48.0 kHz
Frame rate                               : 31.250 FPS (1536 SPF)
Compression mode                         : Lossy
Stream size                              : 89.0 MiB (10%)
Language                                 : Japanese
Service kind                             : Complete Main
Default                                  : Yes
Forced                                   : No

Text
ID                                       : 3
Format                                   : UTF-8
Codec ID                                 : S_TEXT/UTF8
Codec ID/Info                            : UTF-8 Plain Text
Duration                                 : 27 min 37 s
Bit rate                                 : 46 b/s
Count of elements                        : 301
Stream size                              : 9.47 KiB (0%)
Language                                 : French
Default                                  : Yes
Forced                                   : No