Carole & Tuesday 720p/1080p MULTi


L’histoire se passe environ 50 ans après que l’humanité ait commencé sa migration en direction de Mars. Il s’agit d’une époque où la plupart de la culture est produite par l’intelligence artificielle et les humains se contentent d’être des consommateurs passifs. Parmi ces personnes, il existe deux jeunes femmes très différentes du reste de la population : Carole, une musicienne travaillant à mi-temps dans la métropole d’Alba et Tuesday, fille d’une famille riche venant de la province de Herschel qui rêve de devenir musicienne. Cependant, la famille de Tuesday ne comprend pas son rêve et elle se sent très seule. Un jour, ces deux adolescentes se rencontrent et décident de changer le monde de la musique. Elles ne vont pouvoir créer qu’une petite vague dans cette société, mais cette vague pourrait se transformer en quelque chose de plus grand.

[DragsterPS] CAROLE and TUESDAY S01 [1080p] [Multi-Audio] [Multi-Subs]

mot de passe : carole
General
Unique ID                                : 289841637900408512596459846586730335467 (0xDA0D780D8488C16E4006AFAB320CCCEB)
Complete name                            : [DragsterPS] CAROLE and TUESDAY S01E02 [1080p] [Multi-Audio] [Multi-Subs] [5A93B654].mkv
Format                                   : Matroska
Format version                           : Version 4 / Version 2
File size                                : 1.24 GiB
Duration                                 : 23 min 47 s
Overall bit rate mode                    : Variable
Overall bit rate                         : 7 460 kb/s
Encoded date                             : UTC 2019-08-31 11:44:11
Writing application                      : mkvmerge v32.0.0 ('Astral Progressions') 32-bit
Writing library                          : libebml v1.3.7 + libmatroska v1.5.0

Video
ID                                       : 1
Format                                   : AVC
Format/Info                              : Advanced Video Codec
Format profile                           : Main@L4
Format settings                          : CABAC / 3 Ref Frames
Format settings, CABAC                   : Yes
Format settings, ReFrames                : 3 frames
Codec ID                                 : V_MPEG4/ISO/AVC
Duration                                 : 23 min 47 s
Bit rate mode                            : Variable
Bit rate                                 : 6 490 kb/s
Maximum bit rate                         : 9 735 kb/s
Width                                    : 1 920 pixels
Height                                   : 1 080 pixels
Display aspect ratio                     : 16:9
Frame rate mode                          : Constant
Frame rate                               : 23.976 (24000/1001) FPS
Color space                              : YUV
Chroma subsampling                       : 4:2:0
Bit depth                                : 8 bits
Scan type                                : Progressive
Bits/(Pixel*Frame)                       : 0.131
Stream size                              : 1.05 GiB (84%)
Writing library                          : x264 core 148 r2715 7e75228
Encoding settings                        : cabac=1 / ref=3 / deblock=1:0:0 / analyse=0x1:0x111 / me=umh / subme=10 / psy=1 / psy_rd=1.00:0.00 / mixed_ref=1 / me_range=24 / chroma_me=1 / trellis=2 / 8x8dct=0 / cqm=0 / deadzone=21,11 / fast_pskip=1 / chroma_qp_offset=-2 / threads=8 / lookahead_threads=1 / sliced_threads=0 / nr=0 / decimate=1 / interlaced=0 / bluray_compat=0 / stitchable=1 / constrained_intra=0 / bframes=2 / b_pyramid=0 / b_adapt=2 / b_bias=0 / direct=3 / weightb=1 / open_gop=0 / weightp=2 / keyint=250 / keyint_min=23 / scenecut=0 / intra_refresh=0 / rc_lookahead=48 / rc=2pass / mbtree=1 / bitrate=6490 / ratetol=1.0 / qcomp=0.50 / qpmin=6 / qpmax=51 / qpstep=4 / cplxblur=20.0 / qblur=0.5 / vbv_maxrate=9735 / vbv_bufsize=12980 / nal_hrd=vbr / filler=0 / ip_ratio=1.40 / aq=1:1.00
Default                                  : Yes
Forced                                   : No

Audio #1
ID                                       : 2
Format                                   : E-AC-3
Format/Info                              : Enhanced Audio Coding 3
Codec ID                                 : A_EAC3
Duration                                 : 23 min 47 s
Bit rate mode                            : Constant
Bit rate                                 : 128 kb/s
Channel(s)                               : 2 channels
Channel positions                        : Front: L R
Sampling rate                            : 48.0 kHz
Frame rate                               : 187.500 FPS (256 SPF)
Compression mode                         : Lossy
Stream size                              : 21.8 MiB (2%)
Title                                    : English
Language                                 : English
Service kind                             : Complete Main
Default                                  : Yes
Forced                                   : No

Audio #2
ID                                       : 3
Format                                   : E-AC-3
Format/Info                              : Enhanced Audio Coding 3
Codec ID                                 : A_EAC3
Duration                                 : 23 min 47 s
Bit rate mode                            : Constant
Bit rate                                 : 128 kb/s
Channel(s)                               : 2 channels
Channel positions                        : Front: L R
Sampling rate                            : 48.0 kHz
Frame rate                               : 187.500 FPS (256 SPF)
Compression mode                         : Lossy
Stream size                              : 21.8 MiB (2%)
Title                                    : Castilian
Language                                 : Spanish
Service kind                             : Complete Main
Default                                  : No
Forced                                   : No

Audio #3
ID                                       : 4
Format                                   : E-AC-3
Format/Info                              : Enhanced Audio Coding 3
Codec ID                                 : A_EAC3
Duration                                 : 23 min 47 s
Bit rate mode                            : Constant
Bit rate                                 : 128 kb/s
Channel(s)                               : 2 channels
Channel positions                        : Front: L R
Sampling rate                            : 48.0 kHz
Frame rate                               : 187.500 FPS (256 SPF)
Compression mode                         : Lossy
Stream size                              : 21.8 MiB (2%)
Title                                    : Spanish
Language                                 : Spanish
Service kind                             : Complete Main
Default                                  : No
Forced                                   : No

Audio #4
ID                                       : 5
Format                                   : E-AC-3
Format/Info                              : Enhanced Audio Coding 3
Codec ID                                 : A_EAC3
Duration                                 : 23 min 47 s
Bit rate mode                            : Constant
Bit rate                                 : 128 kb/s
Channel(s)                               : 2 channels
Channel positions                        : Front: L R
Sampling rate                            : 48.0 kHz
Frame rate                               : 187.500 FPS (256 SPF)
Compression mode                         : Lossy
Stream size                              : 21.8 MiB (2%)
Title                                    : French
Language                                 : French
Service kind                             : Complete Main
Default                                  : No
Forced                                   : No

Audio #5
ID                                       : 6
Format                                   : E-AC-3
Format/Info                              : Enhanced Audio Coding 3
Codec ID                                 : A_EAC3
Duration                                 : 23 min 47 s
Bit rate mode                            : Constant
Bit rate                                 : 128 kb/s
Channel(s)                               : 2 channels
Channel positions                        : Front: L R
Sampling rate                            : 48.0 kHz
Frame rate                               : 187.500 FPS (256 SPF)
Compression mode                         : Lossy
Stream size                              : 21.8 MiB (2%)
Title                                    : German
Language                                 : German
Service kind                             : Complete Main
Default                                  : No
Forced                                   : No

Audio #6
ID                                       : 7
Format                                   : E-AC-3
Format/Info                              : Enhanced Audio Coding 3
Codec ID                                 : A_EAC3
Duration                                 : 23 min 47 s
Bit rate mode                            : Constant
Bit rate                                 : 128 kb/s
Channel(s)                               : 2 channels
Channel positions                        : Front: L R
Sampling rate                            : 48.0 kHz
Frame rate                               : 187.500 FPS (256 SPF)
Compression mode                         : Lossy
Stream size                              : 21.8 MiB (2%)
Title                                    : Italian
Language                                 : Italian
Service kind                             : Complete Main
Default                                  : No
Forced                                   : No

Audio #7
ID                                       : 8
Format                                   : E-AC-3
Format/Info                              : Enhanced Audio Coding 3
Codec ID                                 : A_EAC3
Duration                                 : 23 min 47 s
Bit rate mode                            : Constant
Bit rate                                 : 128 kb/s
Channel(s)                               : 2 channels
Channel positions                        : Front: L R
Sampling rate                            : 48.0 kHz
Frame rate                               : 187.500 FPS (256 SPF)
Compression mode                         : Lossy
Stream size                              : 21.8 MiB (2%)
Title                                    : Brazilian Portuguese
Language                                 : Portuguese
Service kind                             : Complete Main
Default                                  : No
Forced                                   : No

Audio #8
ID                                       : 9
Format                                   : E-AC-3
Format/Info                              : Enhanced Audio Coding 3
Codec ID                                 : A_EAC3
Duration                                 : 23 min 47 s
Bit rate mode                            : Constant
Bit rate                                 : 128 kb/s
Channel(s)                               : 2 channels
Channel positions                        : Front: L R
Sampling rate                            : 48.0 kHz
Frame rate                               : 187.500 FPS (256 SPF)
Compression mode                         : Lossy
Stream size                              : 21.8 MiB (2%)
Title                                    : Japanese
Language                                 : Japanese
Service kind                             : Complete Main
Default                                  : No
Forced                                   : No

Audio #9
ID                                       : 10
Format                                   : E-AC-3
Format/Info                              : Enhanced Audio Coding 3
Codec ID                                 : A_EAC3
Duration                                 : 23 min 47 s
Bit rate mode                            : Constant
Bit rate                                 : 128 kb/s
Channel(s)                               : 2 channels
Channel positions                        : Front: L R
Sampling rate                            : 48.0 kHz
Frame rate                               : 187.500 FPS (256 SPF)
Compression mode                         : Lossy
Stream size                              : 21.8 MiB (2%)
Title                                    : Japanese (Audio Description)
Language                                 : Japanese
Service kind                             : Complete Main
Default                                  : No
Forced                                   : No

Text #1
ID                                       : 11
Format                                   : UTF-8
Codec ID                                 : S_TEXT/UTF8
Codec ID/Info                            : UTF-8 Plain Text
Duration                                 : 22 min 41 s
Bit rate                                 : 40 b/s
Count of elements                        : 251
Stream size                              : 6.77 KiB (0%)
Title                                    : English [Full]
Language                                 : English
Default                                  : No
Forced                                   : No

Text #2
ID                                       : 12
Format                                   : UTF-8
Codec ID                                 : S_TEXT/UTF8
Codec ID/Info                            : UTF-8 Plain Text
Duration                                 : 22 min 54 s
Bit rate                                 : 1 b/s
Count of elements                        : 14
Stream size                              : 314 Bytes (0%)
Title                                    : Castilian [Forced]
Language                                 : Spanish
Default                                  : No
Forced                                   : Yes

Text #3
ID                                       : 13
Format                                   : UTF-8
Codec ID                                 : S_TEXT/UTF8
Codec ID/Info                            : UTF-8 Plain Text
Duration                                 : 22 min 51 s
Bit rate                                 : 46 b/s
Count of elements                        : 278
Stream size                              : 7.71 KiB (0%)
Title                                    : Castilian [Full]
Language                                 : Spanish
Default                                  : No
Forced                                   : No

Text #4
ID                                       : 14
Format                                   : UTF-8
Codec ID                                 : S_TEXT/UTF8
Codec ID/Info                            : UTF-8 Plain Text
Duration                                 : 22 min 54 s
Bit rate                                 : 6 b/s
Count of elements                        : 25
Stream size                              : 1.03 KiB (0%)
Title                                    : Spanish [Forced]
Language                                 : Spanish
Default                                  : No
Forced                                   : Yes

Text #5
ID                                       : 15
Format                                   : UTF-8
Codec ID                                 : S_TEXT/UTF8
Codec ID/Info                            : UTF-8 Plain Text
Duration                                 : 22 min 51 s
Bit rate                                 : 48 b/s
Count of elements                        : 278
Stream size                              : 8.14 KiB (0%)
Title                                    : Spanish [Full]
Language                                 : Spanish
Default                                  : No
Forced                                   : No

Text #6
ID                                       : 16
Format                                   : UTF-8
Codec ID                                 : S_TEXT/UTF8
Codec ID/Info                            : UTF-8 Plain Text
Duration                                 : 22 min 54 s
Bit rate                                 : 6 b/s
Count of elements                        : 28
Stream size                              : 1.05 KiB (0%)
Title                                    : French [Forced]
Language                                 : French
Default                                  : No
Forced                                   : Yes

Text #7
ID                                       : 17
Format                                   : UTF-8
Codec ID                                 : S_TEXT/UTF8
Codec ID/Info                            : UTF-8 Plain Text
Duration                                 : 22 min 48 s
Bit rate                                 : 47 b/s
Count of elements                        : 279
Stream size                              : 7.96 KiB (0%)
Title                                    : French [Full]
Language                                 : French
Default                                  : No
Forced                                   : No

Text #8
ID                                       : 18
Format                                   : UTF-8
Codec ID                                 : S_TEXT/UTF8
Codec ID/Info                            : UTF-8 Plain Text
Duration                                 : 22 min 54 s
Bit rate                                 : 2 b/s
Count of elements                        : 15
Stream size                              : 367 Bytes (0%)
Title                                    : German [Forced]
Language                                 : German
Default                                  : No
Forced                                   : Yes

Text #9
ID                                       : 19
Format                                   : UTF-8
Codec ID                                 : S_TEXT/UTF8
Codec ID/Info                            : UTF-8 Plain Text
Duration                                 : 22 min 48 s
Bit rate                                 : 47 b/s
Count of elements                        : 277
Stream size                              : 7.92 KiB (0%)
Title                                    : German [Full]
Language                                 : German
Default                                  : No
Forced                                   : No

Text #10
ID                                       : 20
Format                                   : UTF-8
Codec ID                                 : S_TEXT/UTF8
Codec ID/Info                            : UTF-8 Plain Text
Duration                                 : 22 min 54 s
Bit rate                                 : 6 b/s
Count of elements                        : 35
Stream size                              : 1.08 KiB (0%)
Title                                    : Italian [Forced]
Language                                 : Italian
Default                                  : No
Forced                                   : Yes

Text #11
ID                                       : 21
Format                                   : UTF-8
Codec ID                                 : S_TEXT/UTF8
Codec ID/Info                            : UTF-8 Plain Text
Duration                                 : 22 min 48 s
Bit rate                                 : 46 b/s
Count of elements                        : 278
Stream size                              : 7.73 KiB (0%)
Title                                    : Italian [Full]
Language                                 : Italian
Default                                  : No
Forced                                   : No

Text #12
ID                                       : 22
Format                                   : UTF-8
Codec ID                                 : S_TEXT/UTF8
Codec ID/Info                            : UTF-8 Plain Text
Duration                                 : 22 min 51 s
Bit rate                                 : 46 b/s
Count of elements                        : 278
Stream size                              : 7.85 KiB (0%)
Title                                    : Portuguese [Full]
Language                                 : Portuguese
Default                                  : No
Forced                                   : No

Text #13
ID                                       : 23
Format                                   : UTF-8
Codec ID                                 : S_TEXT/UTF8
Codec ID/Info                            : UTF-8 Plain Text
Duration                                 : 22 min 54 s
Bit rate                                 : 6 b/s
Count of elements                        : 26
Stream size                              : 1.06 KiB (0%)
Title                                    : Brazilian Portuguese [Forced]
Language                                 : Portuguese
Default                                  : No
Forced                                   : Yes

Text #14
ID                                       : 24
Format                                   : UTF-8
Codec ID                                 : S_TEXT/UTF8
Codec ID/Info                            : UTF-8 Plain Text
Duration                                 : 22 min 48 s
Bit rate                                 : 49 b/s
Count of elements                        : 280
Stream size                              : 8.26 KiB (0%)
Title                                    : Brazilian Portuguese [Full]
Language                                 : Portuguese
Default                                  : No
Forced                                   : No

Text #15
ID                                       : 25
Format                                   : UTF-8
Codec ID                                 : S_TEXT/UTF8
Codec ID/Info                            : UTF-8 Plain Text
Duration                                 : 22 min 48 s
Bit rate                                 : 46 b/s
Count of elements                        : 280
Stream size                              : 7.73 KiB (0%)
Title                                    : Polish [Full]
Language                                 : Polish
Default                                  : No
Forced                                   : No

Text #16
ID                                       : 26
Format                                   : UTF-8
Codec ID                                 : S_TEXT/UTF8
Codec ID/Info                            : UTF-8 Plain Text
Duration                                 : 22 min 51 s
Bit rate                                 : 48 b/s
Count of elements                        : 281
Stream size                              : 8.13 KiB (0%)
Title                                    : Turkish [Full]
Language                                 : Turkish
Default                                  : No
Forced                                   : No

Text #17
ID                                       : 27
Format                                   : UTF-8
Codec ID                                 : S_TEXT/UTF8
Codec ID/Info                            : UTF-8 Plain Text
Duration                                 : 22 min 48 s
Bit rate                                 : 46 b/s
Count of elements                        : 269
Stream size                              : 7.85 KiB (0%)
Title                                    : Swedish [Full]
Language                                 : Swedish
Default                                  : No
Forced                                   : No

Text #18
ID                                       : 28
Format                                   : UTF-8
Codec ID                                 : S_TEXT/UTF8
Codec ID/Info                            : UTF-8 Plain Text
Duration                                 : 22 min 48 s
Bit rate                                 : 43 b/s
Count of elements                        : 274
Stream size                              : 7.33 KiB (0%)
Title                                    : Danish [Full]
Language                                 : Danish
Default                                  : No
Forced                                   : No

Text #19
ID                                       : 29
Format                                   : UTF-8
Codec ID                                 : S_TEXT/UTF8
Codec ID/Info                            : UTF-8 Plain Text
Duration                                 : 22 min 48 s
Bit rate                                 : 48 b/s
Count of elements                        : 257
Stream size                              : 8.07 KiB (0%)
Title                                    : Finnish [Full]
Language                                 : Finnish
Default                                  : No
Forced                                   : No

Text #20
ID                                       : 30
Format                                   : UTF-8
Codec ID                                 : S_TEXT/UTF8
Codec ID/Info                            : UTF-8 Plain Text
Duration                                 : 22 min 51 s
Bit rate                                 : 43 b/s
Count of elements                        : 248
Stream size                              : 7.37 KiB (0%)
Title                                    : Dutch [Full]
Language                                 : Dutch
Default                                  : No
Forced                                   : No

Text #21
ID                                       : 31
Format                                   : UTF-8
Codec ID                                 : S_TEXT/UTF8
Codec ID/Info                            : UTF-8 Plain Text
Duration                                 : 22 min 48 s
Bit rate                                 : 42 b/s
Count of elements                        : 271
Stream size                              : 7.04 KiB (0%)
Title                                    : Norwegian [Full]
Language                                 : Norwegian
Default                                  : No
Forced                                   : No

Text #22
ID                                       : 32
Format                                   : UTF-8
Codec ID                                 : S_TEXT/UTF8
Codec ID/Info                            : UTF-8 Plain Text
Duration                                 : 22 min 51 s
Bit rate                                 : 81 b/s
Count of elements                        : 283
Stream size                              : 13.6 KiB (0%)
Title                                    : Russian [Full]
Language                                 : Russian
Default                                  : No
Forced                                   : No

Text #23
ID                                       : 33
Format                                   : UTF-8
Codec ID                                 : S_TEXT/UTF8
Codec ID/Info                            : UTF-8 Plain Text
Duration                                 : 22 min 48 s
Bit rate                                 : 37 b/s
Count of elements                        : 280
Stream size                              : 6.26 KiB (0%)
Title                                    : Hungarian [Full]
Language                                 : Hungarian
Default                                  : No
Forced                                   : No

Text #24
ID                                       : 34
Format                                   : UTF-8
Codec ID                                 : S_TEXT/UTF8
Codec ID/Info                            : UTF-8 Plain Text
Duration                                 : 22 min 48 s
Bit rate                                 : 76 b/s
Count of elements                        : 275
Stream size                              : 12.8 KiB (0%)
Title                                    : Greek [Full]
Language                                 : Greek
Default                                  : No
Forced                                   : No

Text #25
ID                                       : 35
Format                                   : UTF-8
Codec ID                                 : S_TEXT/UTF8
Codec ID/Info                            : UTF-8 Plain Text
Duration                                 : 22 min 46 s
Bit rate                                 : 75 b/s
Count of elements                        : 278
Stream size                              : 12.5 KiB (0%)
Title                                    : Hebrew [Full]
Language                                 : Hebrew
Default                                  : No
Forced                                   : No

Text #26
ID                                       : 36
Format                                   : UTF-8
Codec ID                                 : S_TEXT/UTF8
Codec ID/Info                            : UTF-8 Plain Text
Duration                                 : 22 min 48 s
Bit rate                                 : 81 b/s
Count of elements                        : 282
Stream size                              : 13.7 KiB (0%)
Title                                    : Arabic [Full]
Language                                 : Arabic
Default                                  : No
Forced                                   : No

Text #27
ID                                       : 37
Format                                   : UTF-8
Codec ID                                 : S_TEXT/UTF8
Codec ID/Info                            : UTF-8 Plain Text
Duration                                 : 22 min 48 s
Bit rate                                 : 51 b/s
Count of elements                        : 278
Stream size                              : 8.67 KiB (0%)
Title                                    : Romanian [Full]
Language                                 : Romanian
Default                                  : No
Forced                                   : No

Text #28
ID                                       : 38
Format                                   : UTF-8
Codec ID                                 : S_TEXT/UTF8
Codec ID/Info                            : UTF-8 Plain Text
Duration                                 : 22 min 51 s
Bit rate                                 : 43 b/s
Count of elements                        : 278
Stream size                              : 7.29 KiB (0%)
Title                                    : Czech [Full]
Language                                 : Czech
Default                                  : No
Forced                                   : No

Text #29
ID                                       : 39
Format                                   : UTF-8
Codec ID                                 : S_TEXT/UTF8
Codec ID/Info                            : UTF-8 Plain Text
Duration                                 : 22 min 48 s
Bit rate                                 : 45 b/s
Count of elements                        : 279
Stream size                              : 7.64 KiB (0%)
Title                                    : Indonesian [Full]
Language                                 : Indonesian
Default                                  : No
Forced                                   : No

Text #30
ID                                       : 40
Format                                   : UTF-8
Codec ID                                 : S_TEXT/UTF8
Codec ID/Info                            : UTF-8 Plain Text
Duration                                 : 22 min 48 s
Bit rate                                 : 65 b/s
Count of elements                        : 278
Stream size                              : 11.0 KiB (0%)
Title                                    : Vietnamese [Full]
Language                                 : Vietnamese
Default                                  : No
Forced                                   : No

Text #31
ID                                       : 41
Format                                   : UTF-8
Codec ID                                 : S_TEXT/UTF8
Codec ID/Info                            : UTF-8 Plain Text
Duration                                 : 22 min 48 s
Bit rate                                 : 121 b/s
Count of elements                        : 283
Stream size                              : 20.3 KiB (0%)
Title                                    : Thai [Full]
Language                                 : Thai
Default                                  : No
Forced                                   : No

Text #32
ID                                       : 42
Format                                   : UTF-8
Codec ID                                 : S_TEXT/UTF8
Codec ID/Info                            : UTF-8 Plain Text
Duration                                 : 22 min 48 s
Bit rate                                 : 55 b/s
Count of elements                        : 284
Stream size                              : 9.22 KiB (0%)
Title                                    : Korean [Full]
Language                                 : Korean
Default                                  : No
Forced                                   : No

Text #33
ID                                       : 43
Format                                   : UTF-8
Codec ID                                 : S_TEXT/UTF8
Codec ID/Info                            : UTF-8 Plain Text
Duration                                 : 22 min 48 s
Bit rate                                 : 47 b/s
Count of elements                        : 283
Stream size                              : 7.87 KiB (0%)
Title                                    : Chinese (Simplified) [Full]
Language                                 : Chinese
Default                                  : No
Forced                                   : No

Text #34
ID                                       : 44
Format                                   : UTF-8
Codec ID                                 : S_TEXT/UTF8
Codec ID/Info                            : UTF-8 Plain Text
Duration                                 : 22 min 51 s
Bit rate                                 : 50 b/s
Count of elements                        : 283
Stream size                              : 8.41 KiB (0%)
Title                                    : Chinese (Traditional) [Full]
Language                                 : Chinese
Default                                  : No
Forced                                   : No

Text #35
ID                                       : 45
Format                                   : UTF-8
Codec ID                                 : S_TEXT/UTF8
Codec ID/Info                            : UTF-8 Plain Text
Duration                                 : 1 min 12 s
Bit rate                                 : 78 b/s
Count of elements                        : 21
Stream size                              : 717 Bytes (0%)
Title                                    : Japanese [Forced]
Language                                 : Japanese
Default                                  : No
Forced                                   : Yes

Text #36
ID                                       : 46
Format                                   : UTF-8
Codec ID                                 : S_TEXT/UTF8
Codec ID/Info                            : UTF-8 Plain Text
Duration                                 : 22 min 42 s
Bit rate                                 : 95 b/s
Count of elements                        : 403
Stream size                              : 15.9 KiB (0%)
Title                                    : Japanese [SDH]
Language                                 : Japanese
Default                                  : No
Forced                                   : No

[DragsterPS] CAROLE and TUESDAY S01 [720p] [Multi-Audio] [Multi-Subs]

mot de passe : carole
General
Unique ID                                : 225161171190683499573425477578543595956 (0xA96476D537BAB47112A6276C90B001B4)
Complete name                            : [DragsterPS] CAROLE and TUESDAY S01E02 [720p] [Multi-Audio] [Multi-Subs] [EC28441C].mkv
Format                                   : Matroska
Format version                           : Version 4 / Version 2
File size                                : 772 MiB
Duration                                 : 23 min 47 s
Overall bit rate mode                    : Variable
Overall bit rate                         : 4 538 kb/s
Encoded date                             : UTC 2019-08-31 12:03:48
Writing application                      : mkvmerge v32.0.0 ('Astral Progressions') 32-bit
Writing library                          : libebml v1.3.7 + libmatroska v1.5.0

Video
ID                                       : 1
Format                                   : AVC
Format/Info                              : Advanced Video Codec
Format profile                           : Main@L3.1
Format settings                          : CABAC / 3 Ref Frames
Format settings, CABAC                   : Yes
Format settings, ReFrames                : 3 frames
Codec ID                                 : V_MPEG4/ISO/AVC
Duration                                 : 23 min 47 s
Bit rate mode                            : Variable
Bit rate                                 : 3 480 kb/s
Maximum bit rate                         : 5 220 kb/s
Width                                    : 1 280 pixels
Height                                   : 720 pixels
Display aspect ratio                     : 16:9
Frame rate mode                          : Constant
Frame rate                               : 23.976 (24000/1001) FPS
Color space                              : YUV
Chroma subsampling                       : 4:2:0
Bit depth                                : 8 bits
Scan type                                : Progressive
Bits/(Pixel*Frame)                       : 0.157
Stream size                              : 575 MiB (74%)
Writing library                          : x264 core 148 r2715 7e75228
Encoding settings                        : cabac=1 / ref=3 / deblock=1:0:0 / analyse=0x1:0x111 / me=umh / subme=10 / psy=1 / psy_rd=1.00:0.00 / mixed_ref=1 / me_range=24 / chroma_me=1 / trellis=2 / 8x8dct=0 / cqm=0 / deadzone=21,11 / fast_pskip=1 / chroma_qp_offset=-2 / threads=8 / lookahead_threads=1 / sliced_threads=0 / nr=0 / decimate=1 / interlaced=0 / bluray_compat=0 / stitchable=1 / constrained_intra=0 / bframes=2 / b_pyramid=0 / b_adapt=2 / b_bias=0 / direct=3 / weightb=1 / open_gop=0 / weightp=2 / keyint=250 / keyint_min=23 / scenecut=0 / intra_refresh=0 / rc_lookahead=48 / rc=2pass / mbtree=1 / bitrate=3480 / ratetol=1.0 / qcomp=0.50 / qpmin=6 / qpmax=51 / qpstep=4 / cplxblur=20.0 / qblur=0.5 / vbv_maxrate=5220 / vbv_bufsize=6960 / nal_hrd=vbr / filler=0 / ip_ratio=1.40 / aq=1:1.00
Default                                  : Yes
Forced                                   : No

Audio #1
ID                                       : 2
Format                                   : E-AC-3
Format/Info                              : Enhanced Audio Coding 3
Codec ID                                 : A_EAC3
Duration                                 : 23 min 47 s
Bit rate mode                            : Constant
Bit rate                                 : 128 kb/s
Channel(s)                               : 2 channels
Channel positions                        : Front: L R
Sampling rate                            : 48.0 kHz
Frame rate                               : 187.500 FPS (256 SPF)
Compression mode                         : Lossy
Stream size                              : 21.8 MiB (3%)
Title                                    : English
Language                                 : English
Service kind                             : Complete Main
Default                                  : Yes
Forced                                   : No

Audio #2
ID                                       : 3
Format                                   : E-AC-3
Format/Info                              : Enhanced Audio Coding 3
Codec ID                                 : A_EAC3
Duration                                 : 23 min 47 s
Bit rate mode                            : Constant
Bit rate                                 : 128 kb/s
Channel(s)                               : 2 channels
Channel positions                        : Front: L R
Sampling rate                            : 48.0 kHz
Frame rate                               : 187.500 FPS (256 SPF)
Compression mode                         : Lossy
Stream size                              : 21.8 MiB (3%)
Title                                    : Castilian
Language                                 : Spanish
Service kind                             : Complete Main
Default                                  : No
Forced                                   : No

Audio #3
ID                                       : 4
Format                                   : E-AC-3
Format/Info                              : Enhanced Audio Coding 3
Codec ID                                 : A_EAC3
Duration                                 : 23 min 47 s
Bit rate mode                            : Constant
Bit rate                                 : 128 kb/s
Channel(s)                               : 2 channels
Channel positions                        : Front: L R
Sampling rate                            : 48.0 kHz
Frame rate                               : 187.500 FPS (256 SPF)
Compression mode                         : Lossy
Stream size                              : 21.8 MiB (3%)
Title                                    : Spanish
Language                                 : Spanish
Service kind                             : Complete Main
Default                                  : No
Forced                                   : No

Audio #4
ID                                       : 5
Format                                   : E-AC-3
Format/Info                              : Enhanced Audio Coding 3
Codec ID                                 : A_EAC3
Duration                                 : 23 min 47 s
Bit rate mode                            : Constant
Bit rate                                 : 128 kb/s
Channel(s)                               : 2 channels
Channel positions                        : Front: L R
Sampling rate                            : 48.0 kHz
Frame rate                               : 187.500 FPS (256 SPF)
Compression mode                         : Lossy
Stream size                              : 21.8 MiB (3%)
Title                                    : French
Language                                 : French
Service kind                             : Complete Main
Default                                  : No
Forced                                   : No

Audio #5
ID                                       : 6
Format                                   : E-AC-3
Format/Info                              : Enhanced Audio Coding 3
Codec ID                                 : A_EAC3
Duration                                 : 23 min 47 s
Bit rate mode                            : Constant
Bit rate                                 : 128 kb/s
Channel(s)                               : 2 channels
Channel positions                        : Front: L R
Sampling rate                            : 48.0 kHz
Frame rate                               : 187.500 FPS (256 SPF)
Compression mode                         : Lossy
Stream size                              : 21.8 MiB (3%)
Title                                    : German
Language                                 : German
Service kind                             : Complete Main
Default                                  : No
Forced                                   : No

Audio #6
ID                                       : 7
Format                                   : E-AC-3
Format/Info                              : Enhanced Audio Coding 3
Codec ID                                 : A_EAC3
Duration                                 : 23 min 47 s
Bit rate mode                            : Constant
Bit rate                                 : 128 kb/s
Channel(s)                               : 2 channels
Channel positions                        : Front: L R
Sampling rate                            : 48.0 kHz
Frame rate                               : 187.500 FPS (256 SPF)
Compression mode                         : Lossy
Stream size                              : 21.8 MiB (3%)
Title                                    : Italian
Language                                 : Italian
Service kind                             : Complete Main
Default                                  : No
Forced                                   : No

Audio #7
ID                                       : 8
Format                                   : E-AC-3
Format/Info                              : Enhanced Audio Coding 3
Codec ID                                 : A_EAC3
Duration                                 : 23 min 47 s
Bit rate mode                            : Constant
Bit rate                                 : 128 kb/s
Channel(s)                               : 2 channels
Channel positions                        : Front: L R
Sampling rate                            : 48.0 kHz
Frame rate                               : 187.500 FPS (256 SPF)
Compression mode                         : Lossy
Stream size                              : 21.8 MiB (3%)
Title                                    : Brazilian Portuguese
Language                                 : Portuguese
Service kind                             : Complete Main
Default                                  : No
Forced                                   : No

Audio #8
ID                                       : 9
Format                                   : E-AC-3
Format/Info                              : Enhanced Audio Coding 3
Codec ID                                 : A_EAC3
Duration                                 : 23 min 47 s
Bit rate mode                            : Constant
Bit rate                                 : 128 kb/s
Channel(s)                               : 2 channels
Channel positions                        : Front: L R
Sampling rate                            : 48.0 kHz
Frame rate                               : 187.500 FPS (256 SPF)
Compression mode                         : Lossy
Stream size                              : 21.8 MiB (3%)
Title                                    : Japanese
Language                                 : Japanese
Service kind                             : Complete Main
Default                                  : No
Forced                                   : No

Audio #9
ID                                       : 10
Format                                   : E-AC-3
Format/Info                              : Enhanced Audio Coding 3
Codec ID                                 : A_EAC3
Duration                                 : 23 min 47 s
Bit rate mode                            : Constant
Bit rate                                 : 128 kb/s
Channel(s)                               : 2 channels
Channel positions                        : Front: L R
Sampling rate                            : 48.0 kHz
Frame rate                               : 187.500 FPS (256 SPF)
Compression mode                         : Lossy
Stream size                              : 21.8 MiB (3%)
Title                                    : Japanese (Audio Description)
Language                                 : Japanese
Service kind                             : Complete Main
Default                                  : No
Forced                                   : No

Text #1
ID                                       : 11
Format                                   : UTF-8
Codec ID                                 : S_TEXT/UTF8
Codec ID/Info                            : UTF-8 Plain Text
Duration                                 : 22 min 41 s
Bit rate                                 : 40 b/s
Count of elements                        : 251
Stream size                              : 6.77 KiB (0%)
Title                                    : English [Full]
Language                                 : English
Default                                  : No
Forced                                   : No

Text #2
ID                                       : 12
Format                                   : UTF-8
Codec ID                                 : S_TEXT/UTF8
Codec ID/Info                            : UTF-8 Plain Text
Duration                                 : 22 min 54 s
Bit rate                                 : 1 b/s
Count of elements                        : 14
Stream size                              : 314 Bytes (0%)
Title                                    : Castilian [Forced]
Language                                 : Spanish
Default                                  : No
Forced                                   : Yes

Text #3
ID                                       : 13
Format                                   : UTF-8
Codec ID                                 : S_TEXT/UTF8
Codec ID/Info                            : UTF-8 Plain Text
Duration                                 : 22 min 51 s
Bit rate                                 : 46 b/s
Count of elements                        : 278
Stream size                              : 7.71 KiB (0%)
Title                                    : Castilian [Full]
Language                                 : Spanish
Default                                  : No
Forced                                   : No

Text #4
ID                                       : 14
Format                                   : UTF-8
Codec ID                                 : S_TEXT/UTF8
Codec ID/Info                            : UTF-8 Plain Text
Duration                                 : 22 min 54 s
Bit rate                                 : 6 b/s
Count of elements                        : 25
Stream size                              : 1.03 KiB (0%)
Title                                    : Spanish [Forced]
Language                                 : Spanish
Default                                  : No
Forced                                   : Yes

Text #5
ID                                       : 15
Format                                   : UTF-8
Codec ID                                 : S_TEXT/UTF8
Codec ID/Info                            : UTF-8 Plain Text
Duration                                 : 22 min 51 s
Bit rate                                 : 48 b/s
Count of elements                        : 278
Stream size                              : 8.14 KiB (0%)
Title                                    : Spanish [Full]
Language                                 : Spanish
Default                                  : No
Forced                                   : No

Text #6
ID                                       : 16
Format                                   : UTF-8
Codec ID                                 : S_TEXT/UTF8
Codec ID/Info                            : UTF-8 Plain Text
Duration                                 : 22 min 54 s
Bit rate                                 : 6 b/s
Count of elements                        : 28
Stream size                              : 1.05 KiB (0%)
Title                                    : French [Forced]
Language                                 : French
Default                                  : No
Forced                                   : Yes

Text #7
ID                                       : 17
Format                                   : UTF-8
Codec ID                                 : S_TEXT/UTF8
Codec ID/Info                            : UTF-8 Plain Text
Duration                                 : 22 min 48 s
Bit rate                                 : 47 b/s
Count of elements                        : 279
Stream size                              : 7.96 KiB (0%)
Title                                    : French [Full]
Language                                 : French
Default                                  : No
Forced                                   : No

Text #8
ID                                       : 18
Format                                   : UTF-8
Codec ID                                 : S_TEXT/UTF8
Codec ID/Info                            : UTF-8 Plain Text
Duration                                 : 22 min 54 s
Bit rate                                 : 2 b/s
Count of elements                        : 15
Stream size                              : 367 Bytes (0%)
Title                                    : German [Forced]
Language                                 : German
Default                                  : No
Forced                                   : Yes

Text #9
ID                                       : 19
Format                                   : UTF-8
Codec ID                                 : S_TEXT/UTF8
Codec ID/Info                            : UTF-8 Plain Text
Duration                                 : 22 min 48 s
Bit rate                                 : 47 b/s
Count of elements                        : 277
Stream size                              : 7.92 KiB (0%)
Title                                    : German [Full]
Language                                 : German
Default                                  : No
Forced                                   : No

Text #10
ID                                       : 20
Format                                   : UTF-8
Codec ID                                 : S_TEXT/UTF8
Codec ID/Info                            : UTF-8 Plain Text
Duration                                 : 22 min 54 s
Bit rate                                 : 6 b/s
Count of elements                        : 35
Stream size                              : 1.08 KiB (0%)
Title                                    : Italian [Forced]
Language                                 : Italian
Default                                  : No
Forced                                   : Yes

Text #11
ID                                       : 21
Format                                   : UTF-8
Codec ID                                 : S_TEXT/UTF8
Codec ID/Info                            : UTF-8 Plain Text
Duration                                 : 22 min 48 s
Bit rate                                 : 46 b/s
Count of elements                        : 278
Stream size                              : 7.73 KiB (0%)
Title                                    : Italian [Full]
Language                                 : Italian
Default                                  : No
Forced                                   : No

Text #12
ID                                       : 22
Format                                   : UTF-8
Codec ID                                 : S_TEXT/UTF8
Codec ID/Info                            : UTF-8 Plain Text
Duration                                 : 22 min 51 s
Bit rate                                 : 46 b/s
Count of elements                        : 278
Stream size                              : 7.85 KiB (0%)
Title                                    : Portuguese [Full]
Language                                 : Portuguese
Default                                  : No
Forced                                   : No

Text #13
ID                                       : 23
Format                                   : UTF-8
Codec ID                                 : S_TEXT/UTF8
Codec ID/Info                            : UTF-8 Plain Text
Duration                                 : 22 min 54 s
Bit rate                                 : 6 b/s
Count of elements                        : 26
Stream size                              : 1.06 KiB (0%)
Title                                    : Brazilian Portuguese [Forced]
Language                                 : Portuguese
Default                                  : No
Forced                                   : Yes

Text #14
ID                                       : 24
Format                                   : UTF-8
Codec ID                                 : S_TEXT/UTF8
Codec ID/Info                            : UTF-8 Plain Text
Duration                                 : 22 min 48 s
Bit rate                                 : 49 b/s
Count of elements                        : 280
Stream size                              : 8.26 KiB (0%)
Title                                    : Brazilian Portuguese [Full]
Language                                 : Portuguese
Default                                  : No
Forced                                   : No

Text #15
ID                                       : 25
Format                                   : UTF-8
Codec ID                                 : S_TEXT/UTF8
Codec ID/Info                            : UTF-8 Plain Text
Duration                                 : 22 min 48 s
Bit rate                                 : 46 b/s
Count of elements                        : 280
Stream size                              : 7.73 KiB (0%)
Title                                    : Polish [Full]
Language                                 : Polish
Default                                  : No
Forced                                   : No

Text #16
ID                                       : 26
Format                                   : UTF-8
Codec ID                                 : S_TEXT/UTF8
Codec ID/Info                            : UTF-8 Plain Text
Duration                                 : 22 min 51 s
Bit rate                                 : 48 b/s
Count of elements                        : 281
Stream size                              : 8.13 KiB (0%)
Title                                    : Turkish [Full]
Language                                 : Turkish
Default                                  : No
Forced                                   : No

Text #17
ID                                       : 27
Format                                   : UTF-8
Codec ID                                 : S_TEXT/UTF8
Codec ID/Info                            : UTF-8 Plain Text
Duration                                 : 22 min 48 s
Bit rate                                 : 46 b/s
Count of elements                        : 269
Stream size                              : 7.85 KiB (0%)
Title                                    : Swedish [Full]
Language                                 : Swedish
Default                                  : No
Forced                                   : No

Text #18
ID                                       : 28
Format                                   : UTF-8
Codec ID                                 : S_TEXT/UTF8
Codec ID/Info                            : UTF-8 Plain Text
Duration                                 : 22 min 48 s
Bit rate                                 : 43 b/s
Count of elements                        : 274
Stream size                              : 7.33 KiB (0%)
Title                                    : Danish [Full]
Language                                 : Danish
Default                                  : No
Forced                                   : No

Text #19
ID                                       : 29
Format                                   : UTF-8
Codec ID                                 : S_TEXT/UTF8
Codec ID/Info                            : UTF-8 Plain Text
Duration                                 : 22 min 48 s
Bit rate                                 : 48 b/s
Count of elements                        : 257
Stream size                              : 8.07 KiB (0%)
Title                                    : Finnish [Full]
Language                                 : Finnish
Default                                  : No
Forced                                   : No

Text #20
ID                                       : 30
Format                                   : UTF-8
Codec ID                                 : S_TEXT/UTF8
Codec ID/Info                            : UTF-8 Plain Text
Duration                                 : 22 min 51 s
Bit rate                                 : 43 b/s
Count of elements                        : 248
Stream size                              : 7.37 KiB (0%)
Title                                    : Dutch [Full]
Language                                 : Dutch
Default                                  : No
Forced                                   : No

Text #21
ID                                       : 31
Format                                   : UTF-8
Codec ID                                 : S_TEXT/UTF8
Codec ID/Info                            : UTF-8 Plain Text
Duration                                 : 22 min 48 s
Bit rate                                 : 42 b/s
Count of elements                        : 271
Stream size                              : 7.04 KiB (0%)
Title                                    : Norwegian [Full]
Language                                 : Norwegian
Default                                  : No
Forced                                   : No

Text #22
ID                                       : 32
Format                                   : UTF-8
Codec ID                                 : S_TEXT/UTF8
Codec ID/Info                            : UTF-8 Plain Text
Duration                                 : 22 min 51 s
Bit rate                                 : 81 b/s
Count of elements                        : 283
Stream size                              : 13.6 KiB (0%)
Title                                    : Russian [Full]
Language                                 : Russian
Default                                  : No
Forced                                   : No

Text #23
ID                                       : 33
Format                                   : UTF-8
Codec ID                                 : S_TEXT/UTF8
Codec ID/Info                            : UTF-8 Plain Text
Duration                                 : 22 min 48 s
Bit rate                                 : 37 b/s
Count of elements                        : 280
Stream size                              : 6.26 KiB (0%)
Title                                    : Hungarian [Full]
Language                                 : Hungarian
Default                                  : No
Forced                                   : No

Text #24
ID                                       : 34
Format                                   : UTF-8
Codec ID                                 : S_TEXT/UTF8
Codec ID/Info                            : UTF-8 Plain Text
Duration                                 : 22 min 48 s
Bit rate                                 : 76 b/s
Count of elements                        : 275
Stream size                              : 12.8 KiB (0%)
Title                                    : Greek [Full]
Language                                 : Greek
Default                                  : No
Forced                                   : No

Text #25
ID                                       : 35
Format                                   : UTF-8
Codec ID                                 : S_TEXT/UTF8
Codec ID/Info                            : UTF-8 Plain Text
Duration                                 : 22 min 46 s
Bit rate                                 : 75 b/s
Count of elements                        : 278
Stream size                              : 12.5 KiB (0%)
Title                                    : Hebrew [Full]
Language                                 : Hebrew
Default                                  : No
Forced                                   : No

Text #26
ID                                       : 36
Format                                   : UTF-8
Codec ID                                 : S_TEXT/UTF8
Codec ID/Info                            : UTF-8 Plain Text
Duration                                 : 22 min 48 s
Bit rate                                 : 81 b/s
Count of elements                        : 282
Stream size                              : 13.7 KiB (0%)
Title                                    : Arabic [Full]
Language                                 : Arabic
Default                                  : No
Forced                                   : No

Text #27
ID                                       : 37
Format                                   : UTF-8
Codec ID                                 : S_TEXT/UTF8
Codec ID/Info                            : UTF-8 Plain Text
Duration                                 : 22 min 48 s
Bit rate                                 : 51 b/s
Count of elements                        : 278
Stream size                              : 8.67 KiB (0%)
Title                                    : Romanian [Full]
Language                                 : Romanian
Default                                  : No
Forced                                   : No

Text #28
ID                                       : 38
Format                                   : UTF-8
Codec ID                                 : S_TEXT/UTF8
Codec ID/Info                            : UTF-8 Plain Text
Duration                                 : 22 min 51 s
Bit rate                                 : 43 b/s
Count of elements                        : 278
Stream size                              : 7.29 KiB (0%)
Title                                    : Czech [Full]
Language                                 : Czech
Default                                  : No
Forced                                   : No

Text #29
ID                                       : 39
Format                                   : UTF-8
Codec ID                                 : S_TEXT/UTF8
Codec ID/Info                            : UTF-8 Plain Text
Duration                                 : 22 min 48 s
Bit rate                                 : 45 b/s
Count of elements                        : 279
Stream size                              : 7.64 KiB (0%)
Title                                    : Indonesian [Full]
Language                                 : Indonesian
Default                                  : No
Forced                                   : No

Text #30
ID                                       : 40
Format                                   : UTF-8
Codec ID                                 : S_TEXT/UTF8
Codec ID/Info                            : UTF-8 Plain Text
Duration                                 : 22 min 48 s
Bit rate                                 : 65 b/s
Count of elements                        : 278
Stream size                              : 11.0 KiB (0%)
Title                                    : Vietnamese [Full]
Language                                 : Vietnamese
Default                                  : No
Forced                                   : No

Text #31
ID                                       : 41
Format                                   : UTF-8
Codec ID                                 : S_TEXT/UTF8
Codec ID/Info                            : UTF-8 Plain Text
Duration                                 : 22 min 48 s
Bit rate                                 : 121 b/s
Count of elements                        : 283
Stream size                              : 20.3 KiB (0%)
Title                                    : Thai [Full]
Language                                 : Thai
Default                                  : No
Forced                                   : No

Text #32
ID                                       : 42
Format                                   : UTF-8
Codec ID                                 : S_TEXT/UTF8
Codec ID/Info                            : UTF-8 Plain Text
Duration                                 : 22 min 48 s
Bit rate                                 : 55 b/s
Count of elements                        : 284
Stream size                              : 9.22 KiB (0%)
Title                                    : Korean [Full]
Language                                 : Korean
Default                                  : No
Forced                                   : No

Text #33
ID                                       : 43
Format                                   : UTF-8
Codec ID                                 : S_TEXT/UTF8
Codec ID/Info                            : UTF-8 Plain Text
Duration                                 : 22 min 48 s
Bit rate                                 : 47 b/s
Count of elements                        : 283
Stream size                              : 7.87 KiB (0%)
Title                                    : Chinese (Simplified) [Full]
Language                                 : Chinese
Default                                  : No
Forced                                   : No

Text #34
ID                                       : 44
Format                                   : UTF-8
Codec ID                                 : S_TEXT/UTF8
Codec ID/Info                            : UTF-8 Plain Text
Duration                                 : 22 min 51 s
Bit rate                                 : 50 b/s
Count of elements                        : 283
Stream size                              : 8.41 KiB (0%)
Title                                    : Chinese (Traditional) [Full]
Language                                 : Chinese
Default                                  : No
Forced                                   : No

Text #35
ID                                       : 45
Format                                   : UTF-8
Codec ID                                 : S_TEXT/UTF8
Codec ID/Info                            : UTF-8 Plain Text
Duration                                 : 1 min 12 s
Bit rate                                 : 78 b/s
Count of elements                        : 21
Stream size                              : 717 Bytes (0%)
Title                                    : Japanese [Forced]
Language                                 : Japanese
Default                                  : No
Forced                                   : Yes

Text #36
ID                                       : 46
Format                                   : UTF-8
Codec ID                                 : S_TEXT/UTF8
Codec ID/Info                            : UTF-8 Plain Text
Duration                                 : 22 min 42 s
Bit rate                                 : 95 b/s
Count of elements                        : 403
Stream size                              : 15.9 KiB (0%)
Title                                    : Japanese [SDH]
Language                                 : Japanese
Default                                  : No
Forced                                   : No