Angel Beats 720p/1080p MULTi


Dans le monde de l’au-delà existe un lieu, un immense campus, où sont envoyés les adolescents après leur décès. C’est là que se réveille Yuzuru Otonashi après son trépas, mais il n’a pas vraiment le temps de comprendre ce qui lui arrive qu’il est prit dans un feu croisé entre les membres de la Shinda Sekai Sensen (SSS) et Tenshi. Plus tard, Yuri Nakamura, leader du SSS, lui explique que le groupe se rebelle contre le dieu qui leur a imposé une vie vide de sens. C’est pourquoi Tenshi est leur ennemie jurée. Mais Yuzuru, qui n’a aucun souvenir de sa vie sur Terre, a l’intuition que la jeune fille n’est pas une envoyée de Dieu.

AngelBeats!.MULTI.Bluray.1080p.x264.AAC-TheFantastics

mot de passe : angel
General
Unique ID                                : 329595469514505857788519443466383884473 (0xF7F5C74701DFB6E7F470287BCD2580B9)
Complete name                            : [TheFantastics] Angel Beats! - S01E01 - Depart.mkv
Format                                   : Matroska
Format version                           : Version 4 / Version 2
File size                                : 1.50 GiB
Duration                                 : 26 min 4 s
Overall bit rate                         : 8 246 kb/s
Encoded date                             : UTC 2018-04-07 15:22:24
Writing application                      : mkvmerge v21.0.0 ('Tardigrades Will Inherit The Earth') 64-bit
Writing library                          : libebml v1.3.5 + libmatroska v1.4.8

Video
ID                                       : 1
Format                                   : AVC
Format/Info                              : Advanced Video Codec
Format profile                           : High@L4.1
Format settings                          : CABAC / 3 Ref Frames
Format settings, CABAC                   : Yes
Format settings, ReFrames                : 3 frames
Codec ID                                 : V_MPEG4/ISO/AVC
Duration                                 : 26 min 3 s
Bit rate                                 : 7 458 kb/s
Width                                    : 1 920 pixels
Height                                   : 1 080 pixels
Display aspect ratio                     : 16:9
Frame rate mode                          : Constant
Frame rate                               : 23.976 (24000/1001) FPS
Color space                              : YUV
Chroma subsampling                       : 4:2:0
Bit depth                                : 8 bits
Scan type                                : Progressive
Bits/(Pixel*Frame)                       : 0.150
Stream size                              : 1.36 GiB (90%)
Writing library                          : x264 core 148
Encoding settings                        : cabac=1 / ref=3 / deblock=1:-1:-1 / analyse=0x3:0 / me=hex / subme=5 / psy=1 / psy_rd=1.00:0.00 / mixed_ref=0 / me_range=16 / chroma_me=1 / trellis=1 / 8x8dct=1 / cqm=0 / deadzone=21,11 / fast_pskip=0 / chroma_qp_offset=0 / threads=8 / lookahead_threads=2 / sliced_threads=0 / nr=0 / decimate=1 / interlaced=0 / bluray_compat=0 / constrained_intra=0 / bframes=2 / b_pyramid=0 / b_adapt=1 / b_bias=0 / direct=1 / weightb=0 / open_gop=0 / weightp=0 / keyint=24 / keyint_min=2 / scenecut=40 / intra_refresh=0 / rc=2pass / mbtree=0 / bitrate=7458 / ratetol=1.0 / qcomp=0.60 / qpmin=0 / qpmax=69 / qpstep=4 / cplxblur=20.0 / qblur=0.5 / ip_ratio=1.40 / pb_ratio=1.30 / aq=1:1.00
Language                                 : Japanese
Default                                  : Yes
Forced                                   : No
Color range                              : Limited
Color primaries                          : BT.709
Transfer characteristics                 : BT.709
Matrix coefficients                      : BT.709

Audio #1
ID                                       : 2
Format                                   : AAC
Format/Info                              : Advanced Audio Codec
Format profile                           : LC
Codec ID                                 : A_AAC-2
Duration                                 : 26 min 4 s
Bit rate                                 : 384 kb/s
Channel(s)                               : 2 channels
Channel positions                        : Front: L R
Sampling rate                            : 48.0 kHz
Frame rate                               : 46.875 FPS (1024 SPF)
Compression mode                         : Lossy
Stream size                              : 71.1 MiB (5%)
Language                                 : Japanese
Default                                  : Yes
Forced                                   : No

Audio #2
ID                                       : 3
Format                                   : AAC
Format/Info                              : Advanced Audio Codec
Format profile                           : LC
Codec ID                                 : A_AAC-2
Duration                                 : 26 min 4 s
Bit rate                                 : 384 kb/s
Channel(s)                               : 2 channels
Channel positions                        : Front: L R
Sampling rate                            : 48.0 kHz
Frame rate                               : 46.875 FPS (1024 SPF)
Compression mode                         : Lossy
Stream size                              : 71.1 MiB (5%)
Language                                 : French
Default                                  : No
Forced                                   : No

Text
ID                                       : 4
Format                                   : PGS
Muxing mode                              : zlib
Codec ID                                 : S_HDMV/PGS
Codec ID/Info                            : Picture based subtitle format used on BDs/HD-DVDs
Duration                                 : 25 min 40 s
Bit rate                                 : 54.1 kb/s
Count of elements                        : 904
Stream size                              : 9.94 MiB (1%)
Language                                 : French
Default                                  : Yes
Forced                                   : No

Angel.Beats.iNTEGRALE.MULTi.720p.BluRay.x264-SiDERAL

mot de passe : angel
General
Format                                   : Matroska
Format version                           : Version 4 / Version 2
File size                                : 500 MiB
Duration                                 : 26mn 45s
Overall bit rate                         : 2 612 Kbps
Encoded date                             : UTC 2013-07-24 14:36:37
Writing application                      : mkvmerge v6.1.0 ('Old Devil') built on Mar  2 2013 14:32:37
Writing library                          : libebml v1.3.0 + libmatroska v1.4.0

Video
ID                                       : 1
Format                                   : AVC
Format/Info                              : Advanced Video Codec
Format profile                           : High@L4.1
Format settings, CABAC                   : Yes
Format settings, ReFrames                : 8 frames
Codec ID                                 : V_MPEG4/ISO/AVC
Duration                                 : 26mn 45s
Bit rate                                 : 2 227 Kbps
Width                                    : 1 280 pixels
Height                                   : 720 pixels
Display aspect ratio                     : 16:9
Frame rate                               : 23.976 fps
Color space                              : YUV
Chroma subsampling                       : 4:2:0
Bit depth                                : 8 bits
Scan type                                : Progressive
Bits/(Pixel*Frame)                       : 0.101
Stream size                              : 417 MiB (83%)
Writing library                          : x264 core 133 r2334 a3ac64b
Default                                  : Yes
Forced                                   : No

Audio #1
ID                                       : 2
Format                                   : AC-3
Format/Info                              : Audio Coding 3
Mode extension                           : CM (complete main)
Codec ID                                 : A_AC3
Duration                                 : 26mn 45s
Bit rate mode                            : Constant
Bit rate                                 : 192 Kbps
Channel(s)                               : 2 channels
Channel positions                        : Front: L R
Sampling rate                            : 48.0 KHz
Bit depth                                : 16 bits
Compression mode                         : Lossy
Stream size                              : 36.8 MiB (7%)
Title                                    : AC3 2.0 [192 Kbps]
Language                                 : French
Default                                  : Yes
Forced                                   : No

Audio #2
ID                                       : 3
Format                                   : AC-3
Format/Info                              : Audio Coding 3
Mode extension                           : CM (complete main)
Codec ID                                 : A_AC3
Duration                                 : 26mn 45s
Bit rate mode                            : Constant
Bit rate                                 : 192 Kbps
Channel(s)                               : 2 channels
Channel positions                        : Front: L R
Sampling rate                            : 48.0 KHz
Bit depth                                : 16 bits
Compression mode                         : Lossy
Stream size                              : 36.8 MiB (7%)
Title                                    : AC3 2.0 [192 Kbps]
Language                                 : Japanese
Default                                  : No
Forced                                   : No

Text #1
ID                                       : 4
Format                                   : UTF-8
Codec ID                                 : S_TEXT/UTF8
Codec ID/Info                            : UTF-8 Plain Text
Title                                    : SUBFORCED FR - [SRT]
Language                                 : French
Default                                  : Yes
Forced                                   : No

Text #2
ID                                       : 5
Format                                   : UTF-8
Codec ID                                 : S_TEXT/UTF8
Codec ID/Info                            : UTF-8 Plain Text
Title                                    : VOSTFR - [SRT]
Language                                 : French
Default                                  : No
Forced                                   : No

Menu
00:00:00.000                             : en:Chapter 1
00:01:31.091                             : en:Chapter 2
00:03:57.820                             : en:Chapter 3
00:08:50.530                             : en:Chapter 4
00:23:59.980                             : en:Chapter 5
00:25:56.346                             : en:Chapter 6
00:26:28.587                             : en:Chapter 7
00:26:45.562                             : en:Chapter 8