Angel Beats 720p/1080p MULTi


Dans le monde de l’au-delà existe un lieu, un immense campus, où sont envoyés les adolescents après leur décès. C’est là que se réveille Yuzuru Otonashi après son trépas, mais il n’a pas vraiment le temps de comprendre ce qui lui arrive qu’il est prit dans un feu croisé entre les membres de la Shinda Sekai Sensen (SSS) et Tenshi. Plus tard, Yuri Nakamura, leader du SSS, lui explique que le groupe se rebelle contre le dieu qui leur a imposé une vie vide de sens. C’est pourquoi Tenshi est leur ennemie jurée. Mais Yuzuru, qui n’a aucun souvenir de sa vie sur Terre, a l’intuition que la jeune fille n’est pas une envoyée de Dieu.

Angel.Beats.MULTi.1080p.BluRay.x264-SASHiMi

mot de passe : angel
                             ▄ ■ ▄▄     miam      ▀                ▄
                   ▄▄ ■  ▄█▀      ▀▓█    miam   ▄▄▓▄▄        ▄  ▄█
         ▀ ▄    ▄▓▀     █▀    ▄▄▄▓▀▐▓█        ▄▓▀█▀        ▄█ ▄▓█▌    ▄▄▓▄▄
          ▄▄▓▄ ▓▓██▄   ▄  ▄▄▓▓███   ▓█▌      ▄ ▀  ▄   ▄█ ▄▓█▄▀▓██▌   ▓▀█▀▀
      ▄▄▓▓████▓▓▀ ▀▓█▄ ▄▄▓▓▀▀ ▀█▌   ▓▓█ ▄▄▓█▀  ▄▓   ▄▓█▄▀▓▓█▌ ▓▓█▌░   ▀
    ▄▓▓█▀▀ ▀███▄ ▀  ▀▓█▓▓█▄▄▄▄▄ ▀   ▓███▀▓█▌  ▐▓██▄▀▓██▌ ▓██▌ █▓█▌   ▄▓
   ▀▀██▄▄▄    ▀▄▄▄▀▀▓▓▓█  ▄ ▀▀▓▓██▄▐▓▓█ ▐██   ▓▓██  ▓██▌ ▓██▌ ▓██▌░ ▐▓██
  ▀▄▄▄ ▀▀▓▓██▄▓▓▀ ▄ ▄▓██ ██▀ ▓▓███ ▓▓█  ▓▓█ ▀ ▓███  ▓██▌ ▓██▌ ▓██▌░ █▓██
  ▄▄███▀ ▄▓▓█▓▓██▄▄ ▓▓██  ▄▄▓▓██▀ ▓▓█ ▄ ▐▓▓▌▄█▀▓██  ▓▓█▌ ▓▓█▌ ▓▓█▌  ▓███ ░
  ▄ ▀ ▄▄▓▓██▀  ▀▓▀▀▀█▓▓▀█▓▓██▀▀  ▀▀▀  █▄ ▀▀▓▀ ▓▓▓█▀  ▀▀▀ ▀▓▓█ ▓▓█▌▄█▄▓██
   ▀█▓▓██▀▀ ▄██████▄▄ ▀░▀ ▄▄▄▄████████▄███▄▄▄ ▀ ▄▄▄██████▄▄▄▄ ▀▓▓█▀ ▓▓▓█▀ yL!
                                                                  ▀ ▀

            Angel.Beats.E13.FiNAL.MULTi.1080p.BluRay.x264-SaSHiMi

  Resolution..: 1920*1080
  Debit video.: 7205 kb/sec
  Audio.......: AC3 Stereo 640k/sec
  Langage.....: Francais, Japonais
  Sous-titres.: Francais forces, Francais complets
  Lien........: http://www.allocine.fr/series/ficheserie_gen_cserie=9003.html
                http://www.imdb.com/title/tt1639109

  Synopsis:
 
 Amnesique, Otonashi se reveille dans un lieu qui lui est inconnu. A peine
 conscient, une jeune fille nommee Yuri lui annonce de but en blanc qu'il est
 mort et qu'il se trouve dans l'au-dela. Cette dernière se presente comme le
 leader d'un groupe d'opposants tentant de defier les Dieux par les armes afin
 de se venger des souffrances qu'ils ont endurees dans leur vie anterieure.
 Bien que sceptique au premier abord, Otonashi decouvrira qu'il ne peut mourir
 dans ce nouveau monde et que le conflit virulent confrontant l'equipe de Yuri
 a un ange est bel et bien reel. En quete de ses souvenirs, il s'engagera
 alors dans cette bataille qui parait sans fin.
 
                                                      ▓▓▄▄
         ▀██▄▄  ▄                  ▄                 ▓▓████▀  ░
          ▓▓███▀ ░                █▓▄▄   ░    ▄     ▓▓██░▀ ░░    ▓
          ▓▓█▀░░    ▄      ▄      ▓▓███▀      ▓██▄▄▓██▄▄▄▄▄▄▄▄▄▄▓▓██▄▄
 ▀▄▄▄▄▄▄▄▄▓▓██▄▄▄▄▄▓▓█▄▄  ▓█▄▄    ▓▓██  ░░    ▓▓██▀▀▀▀▀▀▀▀▀▀▀▀▀▀▄▓██▀  ░
    ▀▀▀▀▀░▀▓▓█▀▀▀▀▀▀▀░▀▀▀ ▓████▀  ▓▓██  ░     ▓▓██░░            ▓███ ░░
  ▄     ░ ▓███     ▄      ▓▓██ ░  ▓███ ░░     ▓▓██░▄▄▄▄▄▄▄▄▄▄▄▄▄▓███ ░ ▀▄▄
  ▓██▄▄▄▄▄▓▓██▄▄▄▄████▄▄  ▓▓██ ░  ▓▓██ ░░     ▓▓██▀▀▀▀▀▀▀▀▀▀▀▀▀▀▓▓██ ░ ▄▓▓▓█▄
  ▓▓██▀▀░▀████▀▀▀▀▓███▀ ░ ▓▓██ ░░ ▓▓██ ░      ▓▓██ ░            ▓▓██ ▄▓▓███▀ ░
  ▓▓██ ░░ ▓▓██    ▓▓██ ░  ▓▓██ ░░ ▓███        ▓███░▄▄▄▄▄▄▄▄▄▄▄▄▄▓▓█▄▓▓███▀ ░░
  ▓▓▓█▀░  ▓▓██ ▀▄▓▓███ ░░ ▓█▓█ ░░ ▓█▓█ ░      ▓▓██▀▀▀▀▀▀▀▀▀▀▀▀▀▀▓█▓▓███▀ ░░
 ▄▓▀ ░░  ▓▓███   ▀▓▓▀░░░  ▓███ ░░ ▓▓██        ▓▓██░░           ▄█▓███▀ ░░
   ░░   ▓▓███▓█▄   ░░ ░   ▓▓██ ░  ▓▓██  ▀▄▄▄▄▓█▓▓█░▄▄▄▄▄▄▄▄▄▄▄▓▓████  ░
       ▓▓█▓███▀▓█▄        ▓▓▓█▀░░ ▓▓██    ▀▓█▀░▀▀▀▀▀▀▀▀▀▀▀▀█▓▓██▀▓██ ░
     ▄▓█▀ ▓███  ▀▓██▄▄  ▄ ▓▓▀░░░  ▓▓██ ░     ░░         ▄▄▓▓██▀ ▓▓██ ░
  ▄▄▓▓▀ ░ ▓▓██ ░  ▓▓████ ░▀ ░░    ▓▓██ ░            ▄▄▓▓▓███▀░░ ▓▓██ ░
▀▓▀▀ ░░   ▓▓██ ░   ▀▓▓▀░░  ▄▄▄   ▐▓▓██ ░ ░▄    ▄▄▄▓▓▓███▀▀ ░░   ▓███ ░░
   ░      ▓▓██░░     ░░     ▀▀▓▓██▓███ ░░  ▀▀▓▓█▓█▀▀▀ ░░ ▄▄     ▓▓██ ░░
          ▓▀▀ ░░                ▓▓█▓▀ ░░         ░░        ▀▀▓▓█▄▓▓█ ░░
           ░                     ▀▀░░░                        ▀▓▓▀▀░░ ░░
              Team SaSHiMi 2009-2013!         Ascii: yL^dFs     ░░░

Angel.Beats.iNTEGRALE.MULTi.720p.BluRay.x264-SiDERAL

mot de passe : angel
General
Format                                   : Matroska
Format version                           : Version 4 / Version 2
File size                                : 500 MiB
Duration                                 : 26mn 45s
Overall bit rate                         : 2 612 Kbps
Encoded date                             : UTC 2013-07-24 14:36:37
Writing application                      : mkvmerge v6.1.0 ('Old Devil') built on Mar  2 2013 14:32:37
Writing library                          : libebml v1.3.0 + libmatroska v1.4.0

Video
ID                                       : 1
Format                                   : AVC
Format/Info                              : Advanced Video Codec
Format profile                           : High@L4.1
Format settings, CABAC                   : Yes
Format settings, ReFrames                : 8 frames
Codec ID                                 : V_MPEG4/ISO/AVC
Duration                                 : 26mn 45s
Bit rate                                 : 2 227 Kbps
Width                                    : 1 280 pixels
Height                                   : 720 pixels
Display aspect ratio                     : 16:9
Frame rate                               : 23.976 fps
Color space                              : YUV
Chroma subsampling                       : 4:2:0
Bit depth                                : 8 bits
Scan type                                : Progressive
Bits/(Pixel*Frame)                       : 0.101
Stream size                              : 417 MiB (83%)
Writing library                          : x264 core 133 r2334 a3ac64b
Default                                  : Yes
Forced                                   : No

Audio #1
ID                                       : 2
Format                                   : AC-3
Format/Info                              : Audio Coding 3
Mode extension                           : CM (complete main)
Codec ID                                 : A_AC3
Duration                                 : 26mn 45s
Bit rate mode                            : Constant
Bit rate                                 : 192 Kbps
Channel(s)                               : 2 channels
Channel positions                        : Front: L R
Sampling rate                            : 48.0 KHz
Bit depth                                : 16 bits
Compression mode                         : Lossy
Stream size                              : 36.8 MiB (7%)
Title                                    : AC3 2.0 [192 Kbps]
Language                                 : French
Default                                  : Yes
Forced                                   : No

Audio #2
ID                                       : 3
Format                                   : AC-3
Format/Info                              : Audio Coding 3
Mode extension                           : CM (complete main)
Codec ID                                 : A_AC3
Duration                                 : 26mn 45s
Bit rate mode                            : Constant
Bit rate                                 : 192 Kbps
Channel(s)                               : 2 channels
Channel positions                        : Front: L R
Sampling rate                            : 48.0 KHz
Bit depth                                : 16 bits
Compression mode                         : Lossy
Stream size                              : 36.8 MiB (7%)
Title                                    : AC3 2.0 [192 Kbps]
Language                                 : Japanese
Default                                  : No
Forced                                   : No

Text #1
ID                                       : 4
Format                                   : UTF-8
Codec ID                                 : S_TEXT/UTF8
Codec ID/Info                            : UTF-8 Plain Text
Title                                    : SUBFORCED FR - [SRT]
Language                                 : French
Default                                  : Yes
Forced                                   : No

Text #2
ID                                       : 5
Format                                   : UTF-8
Codec ID                                 : S_TEXT/UTF8
Codec ID/Info                            : UTF-8 Plain Text
Title                                    : VOSTFR - [SRT]
Language                                 : French
Default                                  : No
Forced                                   : No

Menu
00:00:00.000                             : en:Chapter 1
00:01:31.091                             : en:Chapter 2
00:03:57.820                             : en:Chapter 3
00:08:50.530                             : en:Chapter 4
00:23:59.980                             : en:Chapter 5
00:25:56.346                             : en:Chapter 6
00:26:28.587                             : en:Chapter 7
00:26:45.562                             : en:Chapter 8